Вы используете незарегистрированную версию компонента "Вкладки"!

Поиск

(Free Improvisation, Modern Creative) Kahil El'Zabar's Ritual Trio - Big Cliff - 1995, FLAC (tracks+.cue), lossless

(Free Improvisation, Modern Creative) Kahil El'Zabar's Ritual Trio - Big Cliff - 1995, FLAC (tracks+.cue), lossless
Треклист:
Kahil El'Zabar's Ritual Trio - Big Cliff
Жанр: Free Improvisation, Modern Creative
Страна-производитель диска: USA
Год издания диска: 1995
Издатель (лейбл): Delmark Records
Номер по каталогу: DE-477
Аудиокодек: FLAC (*.flac)
Тип рипа: tracks+.cue
Битрейт аудио: lossless
Продолжительность: 1:04:33
Источник (релизер): собственный рип с оригинального диска.
Наличие сканов в содержимом раздачи: да
Треклист:
01. Another Kind Of Groove
02. Big Cliff
03. For The Love Of My Father
04. Blue Rwanda
 
Лог создания рипа
Exact Audio Copy V1.0 beta 2 from 29. April 2011
EAC extraction logfile from 22. January 2012, 14:00
Kahil El'Zabar's Ritual Trio / Big Cliff
Used drive : TSSTcorpCDDVDW SH-S222A Adapter: 1 ID: 0
Read mode : Secure
Utilize accurate stream : Yes
Defeat audio cache : Yes
Make use of C2 pointers : No
Read offset correction : 6
Overread into Lead-In and Lead-Out : No
Fill up missing offset samples with silence : Yes
Delete leading and trailing silent blocks : No
Null samples used in CRC calculations : Yes
Used interface : Native Win32 interface for Win NT & 2000
Gap handling : Appended to previous track
Used output format : User Defined Encoder
Selected bitrate : 896 kBit/s
Quality : High
Add ID3 tag : No
Command line compressor : C:\Tool\CD\EAC10\FLAC\FLAC.EXE
Additional command line options : -6 -V -T "ARTIST=%artist%" -T "TITLE=%title%" -T "ALBUM=%albumtitle%" -T "DATE=%year%" -T "TRACKNUMBER=%tracknr%" -T "GENRE=%genre%" -T "COMMENT=%comment%" -T "BAND=%albuminterpret%" -T "COMPOSER=%composer%" %haslyrics%--ta
TOC of the extracted CD
Track | Start | Length | Start sector | End sector
---------------------------------------------------------
1 | 0:00.00 | 10:17.30 | 0 | 46304
2 | 10:17.30 | 19:51.47 | 46305 | 135676
3 | 30:09.02 | 13:09.73 | 135677 | 194924
4 | 43:19.00 | 21:16.42 | 194925 | 290666
Track 1
Filename C:\! UPLOAD\Kahil El'Zabar's Ritual Trio - Big Cliff (1995) [FLAC] {Delmark}\01 - Another Kind Of Groove.wav
Pre-gap length 0:00:02.00
Peak level 98.8 %
Extraction speed 3.5 X
Track quality 100.0 %
Test CRC DFDFA740
Copy CRC DFDFA740
Cannot be verified as accurate (confidence 2) [38DEA149], AccurateRip returned [E2271D1F] (AR v2)
Copy OK
Track 2
Filename C:\! UPLOAD\Kahil El'Zabar's Ritual Trio - Big Cliff (1995) [FLAC] {Delmark}\02 - Big Cliff.wav
Pre-gap length 0:00:03.43
Peak level 98.8 %
Extraction speed 3.6 X
Track quality 100.0 %
Test CRC 248D3615
Copy CRC 248D3615
Cannot be verified as accurate (confidence 2) [F426B3EB], AccurateRip returned [187DD757] (AR v2)
Copy OK
Track 3
Filename C:\! UPLOAD\Kahil El'Zabar's Ritual Trio - Big Cliff (1995) [FLAC] {Delmark}\03 - For The Love Of My Father.wav
Pre-gap length 0:00:03.42
Peak level 98.3 %
Extraction speed 3.4 X
Track quality 100.0 %
Test CRC 83E2F777
Copy CRC 83E2F777
Cannot be verified as accurate (confidence 2) [CA2AFB6E], AccurateRip returned [AF14473A] (AR v2)
Copy OK
Track 4
Filename C:\! UPLOAD\Kahil El'Zabar's Ritual Trio - Big Cliff (1995) [FLAC] {Delmark}\04 - Blue Rwanda.wav
Pre-gap length 0:00:03.40
Peak level 98.8 %
Extraction speed 3.1 X
Track quality 99.9 %
Test CRC 533CF793
Copy CRC 533CF793
Track not present in AccurateRip database
Copy OK
3 track(s) could not be verified as accurate
1 track(s) not present in the AccurateRip database
No tracks could be verified as accurate
You may have a different pressing from the one(s) in the database
No errors occurred
End of status report
---- CUETools DB Plugin V2.1.2
[CTDB TOCID: QrbXCC_0QN4mR8A5ZmaJhqsZ_zQ-] disk not present in database, Submit result: QrbXCC_0QN4mR8A5ZmaJhqsZ_zQ- has been uploaded
==== Log checksum 219A11E0F3D963F37854822D8D30C18F833DAF08329872512555E00B7302A790 ====
 
Содержание индексной карты (.CUE)
REM GENRE Jazz
REM DATE 1995
REM DISCID 260F2304
REM COMMENT "ExactAudioCopy v1.0b2"
PERFORMER "Kahil El'Zabar's Ritual Trio"
TITLE "Big Cliff"
FILE "01 - Another Kind Of Groove.wav" WAVE
TRACK 01 AUDIO
TITLE "Another Kind Of Groove"
PERFORMER "Kahil El'Zabar's Ritual Trio"
INDEX 01 00:00:00
TRACK 02 AUDIO
TITLE "Big Cliff"
PERFORMER "Kahil El'Zabar's Ritual Trio"
INDEX 00 10:13:62
FILE "02 - Big Cliff.wav" WAVE
INDEX 01 00:00:00
TRACK 03 AUDIO
TITLE "For The Love Of My Father"
PERFORMER "Kahil El'Zabar's Ritual Trio"
INDEX 00 19:48:05
FILE "03 - For The Love Of My Father.wav" WAVE
INDEX 01 00:00:00
TRACK 04 AUDIO
TITLE "Blue Rwanda"
PERFORMER "Kahil El'Zabar's Ritual Trio"
INDEX 00 13:06:33
FILE "04 - Blue Rwanda.wav" WAVE
INDEX 01 00:00:00
Доп. информация:
Recorded live on September 3, 1994 at Underground Fest.
 
Об альбоме (сборнике)
Even modern physics has yet to dimensionally shift four musicians into a trio. But with the guest appearance of Billy Bang that is exactly what has happened. Unique among the Ritual Trio's recordings, Big Cliff brings together elements of past and present, and in doing so generates some of the most powerful music under this band's name. Both Bang and Ari Brown challenge each other to play either the wooliest or the prettiest solo on a given piece and in doing so they more than double their individual power. Favors always keeps things down to earth while El'Zabar's lanky, slyly explosive style manages to expand even further the group's open-sky sound.
 
Состав
Kahil El'Zabar - drums, African drums, thumb piano
Ari Brown - tenor sax, piano
Billy Bang - violin
Malachi Favors - bass
Any questions -> support@pro-jazz.com. По всем вопросам пишите -> support@pro-jazz.com
21:27
125
Нет комментариев. Ваш будет первым!