Вы используете незарегистрированную версию компонента "Вкладки"!

Поиск

(Avant-Garde Jazz, Free Improvisation) Billy Bang - Big Bang Theory - 2000, FLAC (tracks+.cue), lossless

(Avant-Garde Jazz, Free Improvisation) Billy Bang - Big Bang Theory - 2000, FLAC (tracks+.cue), lossless
Треклист:
•Billy Bang - Big Bang Theory•
Жанр: Avant-Garde Jazz, Free Improvisation
Страна-производитель диска: Canada
Год издания диска: 2000
Издатель (лейбл): Justin Time Records
Номер по каталогу: JUST 135-2
Аудиокодек: FLAC (*.flac)
Тип рипа: tracks+.cue
Битрейт аудио: lossless
Продолжительность: 01:06:36
Источник (релизер): Рип с диска.
Наличие сканов в содержимом раздачи: да
Треклист:
01. Contrary Motion 5:16
02. At Play In The Fields Of The Lord 7:34
03. Big Bang Theory 9:49
04. Theme For Taraby 6:03
05. Silent Observation 7:21
06. One For Jazz (For Dennis Charles) 4:31
07. Sweet Irene 6:16
08. Swing Low, Sweet Chariot 2:22
09. Saved By The Bell 5:41
10. Little Sunflower 10:50
Personnel:
Billy Bang - violin
Codaryl Moffett - dr
Alexis T. Pope - p
Curtis Lundy - b
 
Лог создания рипа
Exact Audio Copy V1.0 beta 3 from 29. August 2011
Отчёт EAC об извлечении, выполненном 26. января 2012, 14:56
Billy Bang / Big Bang Theory
Дисковод: TSSTcorpCDDVDW SH-S223C Adapter: 5 ID: 0
Режим чтения : Достоверность
Использование точного потока : Да
Отключение кэша аудио : Да
Использование указателей C2 : Нет
Коррекция смещения при чтении : 697
Способность читать области Lead-in и Lead-out : Нет
Заполнение пропущенных сэмплов тишиной : Да
Удаление блоков с тишиной в начале и конце : Нет
При вычислениях CRC использовались нулевые сэмплы : Да
Интерфейс : Установленный внешний ASPI-интерфейс
Обработка зазоров : Добавлено к предыдущему треку
Выходной формат : Пользовательский кодировщик
Выбранный битрейт : 128 kBit/s
Качество : Высокий
Добавление ID3-тега : Нет
Утилита сжатия : C:\Program Files\Exact Audio Copy\Flac\flac.exe
Дополнительные параметры : -V -8 -T "Genre=%genre%" -T "Artist=%artist%" -T "Title=%title%" -T "Album=%albumtitle%" -T "Date=%year%" -T "Tracknumber=%tracknr%" -T "Comment=%comment%" %source%
TOC извлечённого CD
Трек | Старт | Длительность | Начальный сектор | Конечный сектор
---------------------------------------------------------------------
1 | 0:00.00 | 5:18.52 | 0 | 23901
2 | 5:18.52 | 7:37.55 | 23902 | 58231
3 | 12:56.32 | 9:54.13 | 58232 | 102794
4 | 22:50.45 | 6:02.72 | 102795 | 130016
5 | 28:53.42 | 7:23.68 | 130017 | 163309
6 | 36:17.35 | 4:33.25 | 163310 | 183809
7 | 40:50.60 | 6:42.37 | 183810 | 213996
8 | 47:33.22 | 2:26.55 | 213997 | 225001
9 | 50:00.02 | 5:45.00 | 225002 | 250876
10 | 55:45.02 | 10:51.18 | 250877 | 299719
Трек 1
Имя файла C:\Шахматы\2000.Billy Bang - Big Bang Theory\01. Contrary Motion.wav
Длина предзазора 0:00:02.00
Пиковый уровень 100.0 %
Скорость извлечения 1.9 X
Качество трека 99.9 %
CRC теста 11D0F09F
CRC копии 11D0F09F
Точное извлечение (достоверность 4) [A97B03E7] (AR v1)
Копирование... OK
Трек 2
Имя файла C:\Шахматы\2000.Billy Bang - Big Bang Theory\02. At Play In The Fields Of The Lord.wav
Длина предзазора 0:00:02.25
Пиковый уровень 100.0 %
Скорость извлечения 2.5 X
Качество трека 100.0 %
CRC теста 904E3644
CRC копии 904E3644
Точное извлечение (достоверность 4) [F7D53B7C] (AR v1)
Копирование... OK
Трек 3
Имя файла C:\Шахматы\2000.Billy Bang - Big Bang Theory\03. Big Bang Theory.wav
Длина предзазора 0:00:03.30
Пиковый уровень 100.0 %
Скорость извлечения 3.0 X
Качество трека 100.0 %
CRC теста 1AC2E71C
CRC копии 1AC2E71C
Точное извлечение (достоверность 4) [45AC8D79] (AR v1)
Копирование... OK
Трек 4
Имя файла C:\Шахматы\2000.Billy Bang - Big Bang Theory\04. Theme For Taraby.wav
Длина предзазора 0:00:03.43
Пиковый уровень 100.0 %
Скорость извлечения 3.2 X
Качество трека 100.0 %
CRC теста 818A0626
CRC копии 818A0626
Точное извлечение (достоверность 4) [5AF23C8F] (AR v1)
Копирование... OK
Трек 5
Имя файла C:\Шахматы\2000.Billy Bang - Big Bang Theory\05. Silent Observation.wav
Пиковый уровень 100.0 %
Скорость извлечения 3.2 X
Качество трека 99.9 %
CRC теста B0C31EB1
CRC копии B0C31EB1
Точное извлечение (достоверность 4) [D4A9F99D] (AR v1)
Копирование... OK
Трек 6
Имя файла C:\Шахматы\2000.Billy Bang - Big Bang Theory\06. One For Jazz (For Dennis Charles).wav
Длина предзазора 0:00:02.33
Пиковый уровень 96.0 %
Скорость извлечения 3.4 X
Качество трека 100.0 %
CRC теста 5CEB3FC9
CRC копии 5CEB3FC9
Точное извлечение (достоверность 4) [FC7BE1E0] (AR v1)
Копирование... OK
Трек 7
Имя файла C:\Шахматы\2000.Billy Bang - Big Bang Theory\07. Sweet Irene.wav
Длина предзазора 0:00:02.03
Пиковый уровень 100.0 %
Скорость извлечения 3.8 X
Качество трека 100.0 %
CRC теста 7D66F607
CRC копии 7D66F607
Точное извлечение (достоверность 4) [2859B4C8] (AR v1)
Копирование... OK
Трек 8
Имя файла C:\Шахматы\2000.Billy Bang - Big Bang Theory\08. Swing Low, Sweet Chariot.wav
Длина предзазора 0:00:05.07
Пиковый уровень 100.0 %
Скорость извлечения 2.8 X
Качество трека 99.9 %
CRC теста 4130A690
CRC копии 4130A690
Точное извлечение (достоверность 4) [E79588DC] (AR v1)
Копирование... OK
Трек 9
Имя файла C:\Шахматы\2000.Billy Bang - Big Bang Theory\09. Saved By The Bell.wav
Длина предзазора 0:00:04.00
Пиковый уровень 100.0 %
Скорость извлечения 4.0 X
Качество трека 100.0 %
CRC теста 107EBAF5
CRC копии 107EBAF5
Точное извлечение (достоверность 4) [8491346F] (AR v1)
Копирование... OK
Трек 10
Имя файла C:\Шахматы\2000.Billy Bang - Big Bang Theory\10. Little Sunflower.wav
Длина предзазора 0:00:03.10
Пиковый уровень 100.0 %
Скорость извлечения 4.4 X
Качество трека 100.0 %
CRC теста 0CD437FE
CRC копии 0CD437FE
Точное извлечение (достоверность 4) [224B0B81] (AR v1)
Копирование... OK
Все треки извлечены точно
Ошибок не произошло
Конец отчёта
==== Контрольная сумма отчёта A2855A5943BCE77C0462ABE7970EADF009D2BFED123CC69E0A887F7993CE8E45 ====
 
Содержание индексной карты (.CUE)
REM GENRE Jazz
REM DATE 2000
REM DISCID 840F9C0A
REM COMMENT "ExactAudioCopy v1.0b3"
PERFORMER "Billy Bang"
TITLE "Big Bang Theory"
FILE "01. Contrary Motion.wav" WAVE
TRACK 01 AUDIO
TITLE "Contrary Motion"
PERFORMER "Billy Bang"
ISRC CAJ220018190
INDEX 01 00:00:00
TRACK 02 AUDIO
TITLE "At Play In The Fields Of The Lord"
PERFORMER "Billy Bang"
ISRC CAJ220018200
INDEX 00 05:16:27
FILE "02. At Play In The Fields Of The Lord.wav" WAVE
INDEX 01 00:00:00
TRACK 03 AUDIO
TITLE "Big Bang Theory"
PERFORMER "Billy Bang"
ISRC CAJ220018210
INDEX 00 07:34:25
FILE "03. Big Bang Theory.wav" WAVE
INDEX 01 00:00:00
TRACK 04 AUDIO
TITLE "Theme For Taraby"
PERFORMER "Billy Bang"
ISRC CAJ220018220
INDEX 00 09:50:45
FILE "04. Theme For Taraby.wav" WAVE
INDEX 01 00:00:00
FILE "05. Silent Observation.wav" WAVE
TRACK 05 AUDIO
TITLE "Silent Observation"
PERFORMER "Billy Bang"
ISRC CAJ220018220
INDEX 01 00:00:00
TRACK 06 AUDIO
TITLE "One For Jazz (For Dennis Charles)"
PERFORMER "Billy Bang"
ISRC CAJ220018240
INDEX 00 07:21:35
FILE "06. One For Jazz (For Dennis Charles).wav" WAVE
INDEX 01 00:00:00
TRACK 07 AUDIO
TITLE "Sweet Irene"
PERFORMER "Billy Bang"
ISRC CAJ220018250
INDEX 00 04:31:22
FILE "07. Sweet Irene.wav" WAVE
INDEX 01 00:00:00
TRACK 08 AUDIO
TITLE "Swing Low, Sweet Chariot"
PERFORMER "Billy Bang"
ISRC CAJ220018260
INDEX 00 06:37:30
FILE "08. Swing Low, Sweet Chariot.wav" WAVE
INDEX 01 00:00:00
TRACK 09 AUDIO
TITLE "Saved By The Bell"
PERFORMER "Billy Bang"
ISRC CAJ220018270
INDEX 00 02:22:55
FILE "09. Saved By The Bell.wav" WAVE
INDEX 01 00:00:00
TRACK 10 AUDIO
TITLE "Little Sunflower"
PERFORMER "Billy Bang"
ISRC CAJ220018280
INDEX 00 05:41:65
FILE "10. Little Sunflower.wav" WAVE
INDEX 01 00:00:00
Any questions -> support@pro-jazz.com. По всем вопросам пишите -> support@pro-jazz.com
21:28
154
Нет комментариев. Ваш будет первым!