Вы используете незарегистрированную версию компонента "Вкладки"!

Поиск

(Free Improvisation) Kahil El'Zabar's The Ritual - Sacred Love - 1988, FLAC (tracks+.cue), lossless

(Free Improvisation) Kahil El'Zabar's The Ritual - Sacred Love - 1988, FLAC (tracks+.cue), lossless
Треклист:
Kahil El'Zabar's The Ritual - Sacred Love
Жанр: Free Improvisation
Страна-производитель диска: Germany
Год издания диска: 1988
Издатель (лейбл): Sound Aspects Records
Номер по каталогу: SAS CD 021
Аудиокодек: FLAC (*.flac)
Тип рипа: tracks+.cue
Битрейт аудио: lossless
Продолжительность: 43:53
Источник (релизер): собственный рип с оригинального диска.
Наличие сканов в содержимом раздачи: да
Треклист:
01. Day Of The Celestials 9:09
02. The Inner Search 11:34
03. Earth Song 7:07
04. There Is No Greater Love 15:42
 
Лог создания рипа
Exact Audio Copy V1.0 beta 2 from 29. April 2011
EAC extraction logfile from 22. January 2012, 11:03
Kahil El'Zabar's The Ritual / Sacred Love
Used drive : TSSTcorpCDDVDW SH-S222A Adapter: 1 ID: 0
Read mode : Secure
Utilize accurate stream : Yes
Defeat audio cache : Yes
Make use of C2 pointers : No
Read offset correction : 6
Overread into Lead-In and Lead-Out : No
Fill up missing offset samples with silence : Yes
Delete leading and trailing silent blocks : No
Null samples used in CRC calculations : Yes
Used interface : Native Win32 interface for Win NT & 2000
Gap handling : Appended to previous track
Used output format : User Defined Encoder
Selected bitrate : 896 kBit/s
Quality : High
Add ID3 tag : No
Command line compressor : C:\Tool\CD\EAC10\FLAC\FLAC.EXE
Additional command line options : -6 -V -T "ARTIST=%artist%" -T "TITLE=%title%" -T "ALBUM=%albumtitle%" -T "DATE=%year%" -T "TRACKNUMBER=%tracknr%" -T "GENRE=%genre%" -T "COMMENT=%comment%" -T "BAND=%albuminterpret%" -T "COMPOSER=%composer%" %haslyrics%--ta
TOC of the extracted CD
Track | Start | Length | Start sector | End sector
---------------------------------------------------------
1 | 0:00.32 | 9:08.00 | 32 | 41131
2 | 9:08.32 | 11:37.00 | 41132 | 93406
3 | 20:45.32 | 7:11.00 | 93407 | 125731
4 | 27:56.32 | 15:57.50 | 125732 | 197556
Track 1
Filename C:\! UPLOAD\Kahil El'Zabar's The Ritual - Sacred Love (1988) [FLAC] {Sound Aspects}\01 - Day of the Celestials.wav
Pre-gap length 0:00:02.32
Peak level 89.1 %
Extraction speed 3.3 X
Track quality 100.0 %
Test CRC 40AD07AB
Copy CRC 40AD07AB
Accurately ripped (confidence 2) [F18BE03C] (AR v2)
Copy OK
Track 2
Filename C:\! UPLOAD\Kahil El'Zabar's The Ritual - Sacred Love (1988) [FLAC] {Sound Aspects}\02 - The Inner Search.wav
Pre-gap length 0:00:00.50
Peak level 75.3 %
Extraction speed 3.3 X
Track quality 100.0 %
Test CRC E24BE925
Copy CRC E24BE925
Accurately ripped (confidence 2) [55C70EC3] (AR v2)
Copy OK
Track 3
Filename C:\! UPLOAD\Kahil El'Zabar's The Ritual - Sacred Love (1988) [FLAC] {Sound Aspects}\03 - Earth Song.wav
Pre-gap length 0:00:02.50
Peak level 70.0 %
Extraction speed 3.1 X
Track quality 100.0 %
Test CRC F4CDDF79
Copy CRC F4CDDF79
Accurately ripped (confidence 2) [38A381AC] (AR v2)
Copy OK
Track 4
Filename C:\! UPLOAD\Kahil El'Zabar's The Ritual - Sacred Love (1988) [FLAC] {Sound Aspects}\04 - There Is No Greater Love.wav
Pre-gap length 0:00:03.50
Peak level 99.3 %
Extraction speed 3.3 X
Track quality 100.0 %
Test CRC 01DF9D32
Copy CRC 01DF9D32
Accurately ripped (confidence 2) [19C65CDF] (AR v2)
Copy OK
All tracks accurately ripped
No errors occurred
End of status report
==== Log checksum 7D644E5B201DD81B6E9D08023C1D1F89D7AB00CB27BE4DC34F8DDD8DBA403920 ====
 
Содержание индексной карты (.CUE)
REM GENRE Jazz
REM DATE 1988
REM DISCID 300A4A04
REM COMMENT "ExactAudioCopy v1.0b2"
CATALOG 0000000000000
PERFORMER "Kahil El'Zabar's The Ritual"
TITLE "Sacred Love"
FILE "01 - Day of the Celestials.wav" WAVE
TRACK 01 AUDIO
TITLE "Day of the Celestials"
PERFORMER "Kahil El'Zabar's The Ritual"
ISRC 000000000000
PREGAP 00:00:32
INDEX 01 00:00:00
TRACK 02 AUDIO
TITLE "The Inner Search"
PERFORMER "Kahil El'Zabar's The Ritual"
ISRC 000000000000
INDEX 00 09:07:25
FILE "02 - The Inner Search.wav" WAVE
INDEX 01 00:00:00
TRACK 03 AUDIO
TITLE "Earth Song"
PERFORMER "Kahil El'Zabar's The Ritual"
ISRC 000000000000
INDEX 00 11:34:25
FILE "03 - Earth Song.wav" WAVE
INDEX 01 00:00:00
TRACK 04 AUDIO
TITLE "There Is No Greater Love"
PERFORMER "Kahil El'Zabar's The Ritual"
ISRC 000000000000
INDEX 00 07:07:25
FILE "04 - There Is No Greater Love.wav" WAVE
INDEX 01 00:00:00
Доп. информация:
Recorded November 3, 1985 at "One Flight Up", Chicago.
 
Об альбоме (сборнике)
The early days of "The Ritual Trio". Beautiful and unique Afro-American improvisation music.
 
Состав
Kahil El'Zabar - drums, earth drum, sanza, voice
Lester Bowie - trumpet
Malachi Favors - bass
Raphael Garrett - clarinet, percussion
Any questions -> support@pro-jazz.com. По всем вопросам пишите -> support@pro-jazz.com
21:27
138
Нет комментариев. Ваш будет первым!