Вы используете незарегистрированную версию компонента "Вкладки"!

Поиск

(Avant-Garde Jazz / Modern Jazz) Francesco Bearzatti Tinissima Quartet feat. Napoleon Maddox - X (Suite for Malcolm) - 2010, FLAC (tracks+.cue), lossless

(Avant-Garde Jazz / Modern Jazz) Francesco Bearzatti Tinissima Quartet feat. Napoleon Maddox - X (Suite for Malcolm) - 2010, FLAC (tracks+.cue), lossless
Треклист:
Francesco Bearzatti Tinissima 4et feat. Napoleon Maddox - X (Suite for Malcolm)
Жанр: Avant-Garde Jazz / Modern Jazz
Страна-производитель диска: Italy
Год издания диска: 2010
Издатель (лейбл): Parco della Musica Records
Номер по каталогу: MPR 025CD
Аудиокодек: FLAC (*.flac)
Тип рипа: tracks+.cue
Битрейт аудио: lossless
Продолжительность: 61:31
Источник (релизер): другой трекер
Наличие сканов в содержимом раздачи: да / *.jpg (300 dpi)
Треклист:
1. Prologue / Hard Times (08:07)
2. Smart Guy (06:17)
3. Cotton Club (04:07)
4. Prince Of Crime (07:17)
5. Satan In Chains (00:41)
6. Conversion (06:04)
7. A New Leader (05:15)
8. Betrayal (05:58)
9. Hajj (05:49)
10. (Epilogue) (05:40)
11. Kinshasa (to Muhammad Ali) (05:55)
All the tracks composed by Francesco Bearzatti
Lyrics on (Epilogue) by Napoleon Maddox
Доп. информация:
Musicians:
Francesco Bearzatti - sax, clarinet, xaphoon, electronics
Giovanni Falzone - trumpet, human effects
Danilo Gallo - double bass, electric bass
Zeno De Rossi - drums, percussion
Napoleon Maddox - voice on (Epilogue)
Mauro Gargano - pizzicato double bass on (Epilogue)
Recorded on March 29th, 30th, 31st 2010 in Cavalicco (UD) - at the ARTESUONO Recording Studio by Stefano Amerio
Napoleon Maddox and Mauro Gargano playing on (Epilogue) recorded in February 2010 in Paris at the Bop City by Max
Francesco Bearzatti Official Site
 
Лог создания рипа
X Lossless Decoder version 20101120 (125.2)
XLD extraction logfile from 2010-11-28 21:02:00 +0100
Francesco Bearzatti Tinissima Quartet / X (Suite for Malcom)
Used drive : HL-DT-ST DVDRAM GP08NU20 (revision 1.00)
Ripper mode : CDParanoia III 10.2
Disable audio cache : OK for the drive with a cache less than 2750KiB
Make use of C2 pointers : NO
Read offset correction : 102
Max retry count : 100
Gap status : Analyzed, Appended
TOC of the extracted CD
Track | Start | Length | Start sector | End sector
---------------------------------------------------------
1 | 00:00:00 | 08:06:54 | 0 | 36503
2 | 08:06:54 | 06:17:32 | 36504 | 64810
3 | 14:24:11 | 04:06:61 | 64811 | 83321
4 | 18:30:72 | 07:16:50 | 83322 | 116071
5 | 25:47:47 | 00:40:62 | 116072 | 119133
6 | 26:28:34 | 06:04:13 | 119134 | 146446
7 | 32:32:47 | 05:14:44 | 146447 | 170040
8 | 37:47:16 | 05:58:30 | 170041 | 196920
9 | 43:45:46 | 05:49:17 | 196921 | 223112
10 | 49:34:63 | 05:39:63 | 223113 | 248600
11 | 55:14:51 | 05:55:18 | 248601 | 275243
AccurateRip Summary
Track 01 : OK (confidence 1)
Track 02 : OK (confidence 1)
Track 03 : OK (confidence 1)
Track 04 : OK (confidence 1)
Track 05 : OK (confidence 1)
Track 06 : OK (confidence 1)
Track 07 : OK (confidence 1)
Track 08 : OK (confidence 1)
Track 09 : OK (confidence 1)
Track 10 : OK (confidence 1)
Track 11 : OK (confidence 1)
->All tracks accurately ripped.
All Tracks
Album gain : -7.52 dB
Peak : 0.966309
Track 01
Filename : /Volumes/8-Jazz + altro/ Flac/Francesco Bearzatti Tinissima Quartet - X (Suite for Malcom) (2010) [FLAC] {Egea}/01 - Prologue-hard times.flac
Pre-gap length : 00:02:00
Track gain : -6.55 dB
Peak : 0.966217
CRC32 hash (test run) : A9ACA6EB
CRC32 hash : A9ACA6EB
CRC32 hash (skip zero) : 8F6B0C65
AccurateRip signature : 06073405
->Accurately ripped! (confidence 1)
Statistics
Read error : 0
Skipped (treated as error) : 0
Edge jitter error (maybe fixed) : 0
Atom jitter error (maybe fixed) : 0
Drift error (maybe fixed) : 0
Dropped bytes error (maybe fixed) : 0
Duplicated bytes error (maybe fixed) : 0
Inconsistency in error sectors : 0
Track 02
Filename : /Volumes/8-Jazz + altro/ Flac/Francesco Bearzatti Tinissima Quartet - X (Suite for Malcom) (2010) [FLAC] {Egea}/02 - Smart guy.flac
Track gain : -6.23 dB
Peak : 0.966217
CRC32 hash (test run) : AA3E863A
CRC32 hash : AA3E863A
CRC32 hash (skip zero) : AF20B11B
AccurateRip signature : 06FF0D05
->Accurately ripped! (confidence 1)
Statistics
Read error : 0
Skipped (treated as error) : 0
Edge jitter error (maybe fixed) : 1
Atom jitter error (maybe fixed) : 0
Drift error (maybe fixed) : 0
Dropped bytes error (maybe fixed) : 1
Duplicated bytes error (maybe fixed) : 0
Inconsistency in error sectors : 0
Track 03
Filename : /Volumes/8-Jazz + altro/ Flac/Francesco Bearzatti Tinissima Quartet - X (Suite for Malcom) (2010) [FLAC] {Egea}/03 - Cotton club.flac
Track gain : -7.46 dB
Peak : 0.966248
CRC32 hash (test run) : 66F4BE6E
CRC32 hash : 66F4BE6E
CRC32 hash (skip zero) : E5D97D45
AccurateRip signature : 8E2FC152
->Accurately ripped! (confidence 1)
Statistics
Read error : 0
Skipped (treated as error) : 0
Edge jitter error (maybe fixed) : 1
Atom jitter error (maybe fixed) : 0
Drift error (maybe fixed) : 0
Dropped bytes error (maybe fixed) : 0
Duplicated bytes error (maybe fixed) : 1
Inconsistency in error sectors : 0
Track 04
Filename : /Volumes/8-Jazz + altro/ Flac/Francesco Bearzatti Tinissima Quartet - X (Suite for Malcom) (2010) [FLAC] {Egea}/04 - Prince of crime.flac
Track gain : -7.51 dB
Peak : 0.966248
CRC32 hash (test run) : 1571886F
CRC32 hash : 1571886F
CRC32 hash (skip zero) : 1B8410BD
AccurateRip signature : 27D95DBA
->Accurately ripped! (confidence 1)
Statistics
Read error : 0
Skipped (treated as error) : 0
Edge jitter error (maybe fixed) : 1
Atom jitter error (maybe fixed) : 0
Drift error (maybe fixed) : 0
Dropped bytes error (maybe fixed) : 1
Duplicated bytes error (maybe fixed) : 1
Inconsistency in error sectors : 0
Track 05
Filename : /Volumes/8-Jazz + altro/ Flac/Francesco Bearzatti Tinissima Quartet - X (Suite for Malcom) (2010) [FLAC] {Egea}/05 - Satan in chains.flac
Track gain : -9.06 dB
Peak : 0.966309
CRC32 hash (test run) : CCCB60DA
CRC32 hash : CCCB60DA
CRC32 hash (skip zero) : 83F23F8C
AccurateRip signature : 0A97BF8B
->Accurately ripped! (confidence 1)
Statistics
Read error : 0
Skipped (treated as error) : 0
Edge jitter error (maybe fixed) : 0
Atom jitter error (maybe fixed) : 0
Drift error (maybe fixed) : 0
Dropped bytes error (maybe fixed) : 0
Duplicated bytes error (maybe fixed) : 0
Inconsistency in error sectors : 0
Track 06
Filename : /Volumes/8-Jazz + altro/ Flac/Francesco Bearzatti Tinissima Quartet - X (Suite for Malcom) (2010) [FLAC] {Egea}/06 - Conversion.flac
Track gain : -6.82 dB
Peak : 0.966217
CRC32 hash (test run) : F8C28FBD
CRC32 hash : F8C28FBD
CRC32 hash (skip zero) : 414A47DF
AccurateRip signature : C9EB795A
->Accurately ripped! (confidence 1)
Statistics
Read error : 0
Skipped (treated as error) : 0
Edge jitter error (maybe fixed) : 0
Atom jitter error (maybe fixed) : 0
Drift error (maybe fixed) : 0
Dropped bytes error (maybe fixed) : 0
Duplicated bytes error (maybe fixed) : 0
Inconsistency in error sectors : 0
Track 07
Filename : /Volumes/8-Jazz + altro/ Flac/Francesco Bearzatti Tinissima Quartet - X (Suite for Malcom) (2010) [FLAC] {Egea}/07 - A new leader.flac
Track gain : -7.05 dB
Peak : 0.966278
CRC32 hash (test run) : 01EF0E89
CRC32 hash : 01EF0E89
CRC32 hash (skip zero) : 33B12CE7
AccurateRip signature : D5127B92
->Accurately ripped! (confidence 1)
Statistics
Read error : 0
Skipped (treated as error) : 0
Edge jitter error (maybe fixed) : 0
Atom jitter error (maybe fixed) : 0
Drift error (maybe fixed) : 0
Dropped bytes error (maybe fixed) : 0
Duplicated bytes error (maybe fixed) : 0
Inconsistency in error sectors : 0
Track 08
Filename : /Volumes/8-Jazz + altro/ Flac/Francesco Bearzatti Tinissima Quartet - X (Suite for Malcom) (2010) [FLAC] {Egea}/08 - Betrayal.flac
Track gain : -6.23 dB
Peak : 0.966248
CRC32 hash (test run) : 13BFE600
CRC32 hash : 13BFE600
CRC32 hash (skip zero) : 89489D4E
AccurateRip signature : 115ED011
->Accurately ripped! (confidence 1)
Statistics
Read error : 0
Skipped (treated as error) : 0
Edge jitter error (maybe fixed) : 1
Atom jitter error (maybe fixed) : 0
Drift error (maybe fixed) : 0
Dropped bytes error (maybe fixed) : 1
Duplicated bytes error (maybe fixed) : 0
Inconsistency in error sectors : 0
Track 09
Filename : /Volumes/8-Jazz + altro/ Flac/Francesco Bearzatti Tinissima Quartet - X (Suite for Malcom) (2010) [FLAC] {Egea}/09 - Hajj.flac
Pre-gap length : 00:01:00
Track gain : -7.67 dB
Peak : 0.966248
CRC32 hash (test run) : E791EE61
CRC32 hash : E791EE61
CRC32 hash (skip zero) : 2A8F6881
AccurateRip signature : 595AB8EE
->Accurately ripped! (confidence 1)
Statistics
Read error : 0
Skipped (treated as error) : 0
Edge jitter error (maybe fixed) : 0
Atom jitter error (maybe fixed) : 0
Drift error (maybe fixed) : 0
Dropped bytes error (maybe fixed) : 0
Duplicated bytes error (maybe fixed) : 0
Inconsistency in error sectors : 0
Track 10
Filename : /Volumes/8-Jazz + altro/ Flac/Francesco Bearzatti Tinissima Quartet - X (Suite for Malcom) (2010) [FLAC] {Egea}/10 - Epilogue.flac
Track gain : -8.81 dB
Peak : 0.966248
CRC32 hash (test run) : 49422A74
CRC32 hash : 49422A74
CRC32 hash (skip zero) : BF058F54
AccurateRip signature : 45D6653A
->Accurately ripped! (confidence 1)
Statistics
Read error : 0
Skipped (treated as error) : 0
Edge jitter error (maybe fixed) : 1
Atom jitter error (maybe fixed) : 0
Drift error (maybe fixed) : 0
Dropped bytes error (maybe fixed) : 1
Duplicated bytes error (maybe fixed) : 0
Inconsistency in error sectors : 0
Track 11
Filename : /Volumes/8-Jazz + altro/ Flac/Francesco Bearzatti Tinissima Quartet - X (Suite for Malcom) (2010) [FLAC] {Egea}/11 - Kinshasa (to Muhammad Ali).flac
Pre-gap length : 00:03:00
Track gain : -8.11 dB
Peak : 0.966309
CRC32 hash (test run) : 3D108182
CRC32 hash : 3D108182
CRC32 hash (skip zero) : CCB4E18B
AccurateRip signature : 1F8F308E
->Accurately ripped! (confidence 1)
Statistics
Read error : 0
Skipped (treated as error) : 0
Edge jitter error (maybe fixed) : 0
Atom jitter error (maybe fixed) : 0
Drift error (maybe fixed) : 0
Dropped bytes error (maybe fixed) : 0
Duplicated bytes error (maybe fixed) : 0
Inconsistency in error sectors : 0
No errors occurred
End of status report
 
Содержание индексной карты (.CUE)
TITLE "X (Suite for Malcom)"
PERFORMER "Francesco Bearzatti Tinissima Quartet"
REM GENRE "Jazz"
REM DATE "2010"
REM DISCID AD0E550B
FILE "01 - Prologue-hard times.wav" WAVE
TRACK 01 AUDIO
TITLE "Prologue-hard times"
ISRC ITPDM1000291
INDEX 01 00:00:00
FILE "02 - Smart guy.wav" WAVE
TRACK 02 AUDIO
TITLE "Smart guy"
ISRC ITPDM1000292
INDEX 01 00:00:00
FILE "03 - Cotton club.wav" WAVE
TRACK 03 AUDIO
TITLE "Cotton club"
ISRC ITPDM1000293
INDEX 01 00:00:00
FILE "04 - Prince of crime.wav" WAVE
TRACK 04 AUDIO
TITLE "Prince of crime"
ISRC ITPDM1000294
INDEX 01 00:00:00
FILE "05 - Satan in chains.wav" WAVE
TRACK 05 AUDIO
TITLE "Satan in chains"
ISRC ITPDM1000295
INDEX 01 00:00:00
FILE "06 - Conversion.wav" WAVE
TRACK 06 AUDIO
TITLE "Conversion"
ISRC ITPDM1000296
INDEX 01 00:00:00
FILE "07 - A new leader.wav" WAVE
TRACK 07 AUDIO
TITLE "A new leader"
ISRC ITPDM1000297
INDEX 01 00:00:00
FILE "08 - Betrayal.wav" WAVE
TRACK 08 AUDIO
TITLE "Betrayal"
ISRC ITPDM1000298
INDEX 01 00:00:00
TRACK 09 AUDIO
TITLE "Hajj"
ISRC ITPDM1000299
INDEX 00 05:57:30
FILE "09 - Hajj.wav" WAVE
INDEX 01 00:00:00
FILE "10 - Epilogue.wav" WAVE
TRACK 10 AUDIO
TITLE "Epilogue"
ISRC ITPDM1000300
INDEX 01 00:00:00
TRACK 11 AUDIO
TITLE "Kinshasa (to Muhammad Ali)"
ISRC ITPDM1000301
INDEX 00 05:36:63
FILE "11 - Kinshasa (to Muhammad Ali).wav" WAVE
INDEX 01 00:00:00
 
Audiochecker 2.0 beta (build 457)
AUDIOCHECKER v2.0 beta (build 457) - by Dester - opdester@freemail.hu
~~~~~~~~~~~~~~~~~~~~~~~~~~~~~~~~~~
Started at: вторник, 24. 01. 2012. - 21:28.10
11 files found
01 -===- L:\rutracker.org_Audio CD\#_007_Francesco Bearzatti Tinissima Quartet - X (Suite for Malcom) (2010)\Francesco Bearzatti Tinissima Quartet - X (Suite for Malcom) (2010)\01 - Prologue-hard times.flac
Extracted successfully
Conclusion: this track is CDDA with probability 100%
Tempfile successfully deleted.
02 -===- L:\rutracker.org_Audio CD\#_007_Francesco Bearzatti Tinissima Quartet - X (Suite for Malcom) (2010)\Francesco Bearzatti Tinissima Quartet - X (Suite for Malcom) (2010)\02 - Smart guy.flac
Extracted successfully
Conclusion: this track is CDDA with probability 100%
Tempfile successfully deleted.
03 -===- L:\rutracker.org_Audio CD\#_007_Francesco Bearzatti Tinissima Quartet - X (Suite for Malcom) (2010)\Francesco Bearzatti Tinissima Quartet - X (Suite for Malcom) (2010)\03 - Cotton club.flac
Extracted successfully
Conclusion: this track is CDDA with probability 99%
Tempfile successfully deleted.
04 -===- L:\rutracker.org_Audio CD\#_007_Francesco Bearzatti Tinissima Quartet - X (Suite for Malcom) (2010)\Francesco Bearzatti Tinissima Quartet - X (Suite for Malcom) (2010)\04 - Prince of crime.flac
Extracted successfully
Conclusion: this track is CDDA with probability 100%
Tempfile successfully deleted.
05 -===- L:\rutracker.org_Audio CD\#_007_Francesco Bearzatti Tinissima Quartet - X (Suite for Malcom) (2010)\Francesco Bearzatti Tinissima Quartet - X (Suite for Malcom) (2010)\05 - Satan in chains.flac
Extracted successfully
Conclusion: this track is CDDA with probability 100%
Tempfile successfully deleted.
06 -===- L:\rutracker.org_Audio CD\#_007_Francesco Bearzatti Tinissima Quartet - X (Suite for Malcom) (2010)\Francesco Bearzatti Tinissima Quartet - X (Suite for Malcom) (2010)\06 - Conversion.flac
Extracted successfully
Conclusion: this track is CDDA with probability 100%
Tempfile successfully deleted.
07 -===- L:\rutracker.org_Audio CD\#_007_Francesco Bearzatti Tinissima Quartet - X (Suite for Malcom) (2010)\Francesco Bearzatti Tinissima Quartet - X (Suite for Malcom) (2010)\07 - A new leader.flac
Extracted successfully
Conclusion: this track is CDDA with probability 100%
Tempfile successfully deleted.
08 -===- L:\rutracker.org_Audio CD\#_007_Francesco Bearzatti Tinissima Quartet - X (Suite for Malcom) (2010)\Francesco Bearzatti Tinissima Quartet - X (Suite for Malcom) (2010)\08 - Betrayal.flac
Extracted successfully
Conclusion: this track is CDDA with probability 100%
Tempfile successfully deleted.
09 -===- L:\rutracker.org_Audio CD\#_007_Francesco Bearzatti Tinissima Quartet - X (Suite for Malcom) (2010)\Francesco Bearzatti Tinissima Quartet - X (Suite for Malcom) (2010)\09 - Hajj.flac
Extracted successfully
Conclusion: this track is CDDA with probability 100%
Tempfile successfully deleted.
10 -===- L:\rutracker.org_Audio CD\#_007_Francesco Bearzatti Tinissima Quartet - X (Suite for Malcom) (2010)\Francesco Bearzatti Tinissima Quartet - X (Suite for Malcom) (2010)\10 - Epilogue.flac
Extracted successfully
Conclusion: this track is CDDA with probability 100%
Tempfile successfully deleted.
11 -===- L:\rutracker.org_Audio CD\#_007_Francesco Bearzatti Tinissima Quartet - X (Suite for Malcom) (2010)\Francesco Bearzatti Tinissima Quartet - X (Suite for Malcom) (2010)\11 - Kinshasa (to Muhammad Ali).flac
Extracted successfully
Conclusion: this track is CDDA with probability 100%
Tempfile successfully deleted.
Finished at: вторник, 24. 01. 2012. - 21:35.51 (operation time: 0:07.41)
Any questions -> support@pro-jazz.com. По всем вопросам пишите -> support@pro-jazz.com
21:26
170
Нет комментариев. Ваш будет первым!