Вы используете незарегистрированную версию компонента "Вкладки"!

Поиск

(Free Improvisation) Michel Wintsch, Franziska Baumann, Fred Frith & Bernard Trontin - Whisperings - 2002, FLAC (tracks+.cue), lossless

(Free Improvisation) Michel Wintsch, Franziska Baumann, Fred Frith & Bernard Trontin - Whisperings - 2002, FLAC (tracks+.cue), lossless
Треклист:
Michel Wintsch, Franziska Baumann, Fred Frith & Bernard Trontin / Whisperings
Жанр: Free Improvisation
Страна-производитель диска: Switzerland
Год издания: 2002
Издатель (лейбл): RecRec Medien
Номер по каталогу: RecDec 75 / EFA 05179-2
Аудиокодек: FLAC (*.flac)
Тип рипа: tracks+.cue
Битрейт аудио: lossless
Продолжительность: 53:18
Источник (релизер): Max Monteiro
Наличие сканов в содержимом раздачи: нет
Треклист:
01. Sleeping in a Dream 5:50
02. Lunatic Fringe 8:18
03. Candles Ahead 1:33
04. Reversed Bridges 8:13
05. Sirènes 1:33
06. Curé’s omelette 6:14
07. Operatic Tchaess 1:50
08. Purple Line 7:51
09. Curious Grass 1:49
10. Nice Giant 3:58
11. Two Stars (Instead of One) 6:08
Compositions by Wintsch / Baumann / Frith / Trontin.
Texts by Baumann (1, 3, 11) and Wintsch (4).
Recorded at Rote Fabrik, Zürich December 1999.
Franziska Baumann – Voice, Flute, Electronics
Michel Wintsch – Piano, Electronics, Samples, Keyboards
Fred Frith – Guitars
Bernard Trontin – Drums, Percussion
 
Лог создания рипа
Exact Audio Copy V1.0 beta 3 from 29. August 2011
EAC extraction logfile from 30. July 2013, 19:49
Michel Wintsch, Franziska Baumann, Fred Frith & Bernard Trontin / Whisperings
Used drive : SlimtypeeNAU508 5 Adapter: 1 ID: 0
Read mode : Secure
Utilize accurate stream : Yes
Defeat audio cache : Yes
Make use of C2 pointers : No
Read offset correction : 6
Overread into Lead-In and Lead-Out : No
Fill up missing offset samples with silence : Yes
Delete leading and trailing silent blocks : No
Null samples used in CRC calculations : Yes
Used interface : Native Win32 interface for Win NT & 2000
Gap handling : Appended to previous track
Used output format : User Defined Encoder
Selected bitrate : 768 kBit/s
Quality : High
Add ID3 tag : No
Command line compressor : C:\Program Files (x86)\Exact Audio Copy\Flac\flac.exe
Additional command line options : -8 -V -T "ARTIST=%artist%" -T "TITLE=%title%" -T "ALBUM=%albumtitle%" -T "DATE=%year%" -T "TRACKNUMBER=%tracknr%" -T "GENRE=%genre%" -T "PERFORMER=%albuminterpret%" -T "COMPOSER=%composer%" %haslyrics%--tag-from-file=LYRICS="%lyricsfile%"%haslyrics% -T "ALBUMARTIST=%albumartist%" -T "DISCNUMBER=%cdnumber%" -T "TOTALDISCS=%totalcds%" -T "TOTALTRACKS=%numtracks%" -T "COMMENT=%comment%" %source% -o %dest%
TOC of the extracted CD
Track | Start | Length | Start sector | End sector
---------------------------------------------------------
1 | 0:00.01 | 5:49.56 | 1 | 26231
2 | 5:49.57 | 8:18.21 | 26232 | 63602
3 | 14:08.03 | 1:33.20 | 63603 | 70597
4 | 15:41.23 | 8:13.23 | 70598 | 107595
5 | 23:54.46 | 1:33.20 | 107596 | 114590
6 | 25:27.66 | 6:13.68 | 114591 | 142633
7 | 31:41.59 | 1:50.15 | 142634 | 150898
8 | 33:31.74 | 7:51.10 | 150899 | 186233
9 | 41:23.09 | 1:48.71 | 186234 | 194404
10 | 43:12.05 | 3:57.73 | 194405 | 212252
11 | 47:10.03 | 6:07.50 | 212253 | 239827
Track 1
Filename C:\EAC rips\01 - Sleeping in a Dream.wav
Pre-gap length 0:00:02.01
Peak level 97.2 %
Extraction speed 1.1 X
Track quality 100.0 %
Test CRC FBF0BE3D
Copy CRC FBF0BE3D
Track not present in AccurateRip database
Copy OK
Track 2
Filename C:\EAC rips\02 - Lunatic Fringe.wav
Peak level 98.9 %
Extraction speed 1.4 X
Track quality 100.0 %
Test CRC CB7F8732
Copy CRC CB7F8732
Track not present in AccurateRip database
Copy OK
Track 3
Filename C:\EAC rips\03 - Candles Ahead.wav
Peak level 96.9 %
Extraction speed 0.9 X
Track quality 99.8 %
Test CRC DA6B8F66
Copy CRC DA6B8F66
Track not present in AccurateRip database
Copy OK
Track 4
Filename C:\EAC rips\04 - Reversed Bridges.wav
Peak level 99.9 %
Extraction speed 1.5 X
Track quality 99.9 %
Test CRC 4F2E36A5
Copy CRC 4F2E36A5
Track not present in AccurateRip database
Copy OK
Track 5
Filename C:\EAC rips\05 - Sirènes.wav
Peak level 97.0 %
Extraction speed 1.0 X
Track quality 99.8 %
Test CRC A391B85F
Copy CRC A391B85F
Track not present in AccurateRip database
Copy OK
Track 6
Filename C:\EAC rips\06 - Curé's omelette.wav
Peak level 98.7 %
Extraction speed 1.8 X
Track quality 100.0 %
Test CRC DC5B6C58
Copy CRC DC5B6C58
Track not present in AccurateRip database
Copy OK
Track 7
Filename C:\EAC rips\07 - Operatic Tschaess.wav
Peak level 97.2 %
Extraction speed 1.2 X
Track quality 99.9 %
Test CRC 03278042
Copy CRC 03278042
Track not present in AccurateRip database
Copy OK
Track 8
Filename C:\EAC rips\08 - Purple Line.wav
Peak level 98.5 %
Extraction speed 1.8 X
Track quality 99.9 %
Test CRC E4252ED7
Copy CRC E4252ED7
Track not present in AccurateRip database
Copy OK
Track 9
Filename C:\EAC rips\09 - Curious Grass.wav
Peak level 98.4 %
Extraction speed 1.6 X
Track quality 100.0 %
Test CRC EB4C2ECF
Copy CRC EB4C2ECF
Track not present in AccurateRip database
Copy OK
Track 10
Filename C:\EAC rips\10 - Nice Giant.wav
Peak level 98.7 %
Extraction speed 2.0 X
Track quality 100.0 %
Test CRC 81637A59
Copy CRC 81637A59
Track not present in AccurateRip database
Copy OK
Track 11
Filename C:\EAC rips\11 - Two Stars (Instead of One).wav
Peak level 97.7 %
Extraction speed 2.1 X
Track quality 100.0 %
Test CRC 225267E6
Copy CRC 225267E6
Track not present in AccurateRip database
Copy OK
None of the tracks are present in the AccurateRip database
No errors occurred
End of status report
---- CUETools DB Plugin V2.1.4
[CTDB TOCID: 9HJLYMLUTtq6uJv6rKuyNqhV77s-] disk not present in database
Submit result: 9HJLYMLUTtq6uJv6rKuyNqhV77s- has been uploaded
==== Log checksum 3778A8CD0067EED462CE02AD156A3F31376AA41E9D3F2C1194C7E083F8FFB313 ====
 
Содержание индексной карты (.CUE)
REM GENRE Jazz
REM DATE 2002
REM DISCID 900C7D0B
REM COMMENT "ExactAudioCopy v1.0b3"
PERFORMER "Michel Wintsch, Franziska Baumann, Fred Frith & Bernard Trontin"
TITLE "Whisperings"
FILE "01 - Sleeping in a Dream.wav" WAVE
TRACK 01 AUDIO
TITLE "Sleeping in a Dream"
PERFORMER "Michel Wintsch, Franziska Baumann, Fred Frith & Bernard Trontin"
ISRC DEM840000074
FLAGS DCP
PREGAP 00:00:01
INDEX 01 00:00:00
FILE "02 - Lunatic Fringe.wav" WAVE
TRACK 02 AUDIO
TITLE "Lunatic Fringe"
PERFORMER "Michel Wintsch, Franziska Baumann, Fred Frith & Bernard Trontin"
ISRC DEM840000075
FLAGS DCP
INDEX 01 00:00:00
FILE "03 - Candles Ahead.wav" WAVE
TRACK 03 AUDIO
TITLE "Candles Ahead"
PERFORMER "Michel Wintsch, Franziska Baumann, Fred Frith & Bernard Trontin"
ISRC DEM840000076
FLAGS DCP
INDEX 01 00:00:00
FILE "04 - Reversed Bridges.wav" WAVE
TRACK 04 AUDIO
TITLE "Reversed Bridges"
PERFORMER "Michel Wintsch, Franziska Baumann, Fred Frith & Bernard Trontin"
ISRC DEM840000077
FLAGS DCP
INDEX 01 00:00:00
FILE "05 - Sirènes.wav" WAVE
TRACK 05 AUDIO
TITLE "Sirènes"
PERFORMER "Michel Wintsch, Franziska Baumann, Fred Frith & Bernard Trontin"
ISRC DEM840000078
FLAGS DCP
INDEX 01 00:00:00
FILE "06 - Curé's omelette.wav" WAVE
TRACK 06 AUDIO
TITLE "Curé's omelette"
PERFORMER "Michel Wintsch, Franziska Baumann, Fred Frith & Bernard Trontin"
ISRC DEM840000079
FLAGS DCP
INDEX 01 00:00:00
FILE "07 - Operatic Tschaess.wav" WAVE
TRACK 07 AUDIO
TITLE "Operatic Tschaess"
PERFORMER "Michel Wintsch, Franziska Baumann, Fred Frith & Bernard Trontin"
ISRC DEM840000080
FLAGS DCP
INDEX 01 00:00:00
FILE "08 - Purple Line.wav" WAVE
TRACK 08 AUDIO
TITLE "Purple Line"
PERFORMER "Michel Wintsch, Franziska Baumann, Fred Frith & Bernard Trontin"
ISRC DEM840000081
FLAGS DCP
INDEX 01 00:00:00
FILE "09 - Curious Grass.wav" WAVE
TRACK 09 AUDIO
TITLE "Curious Grass"
PERFORMER "Michel Wintsch, Franziska Baumann, Fred Frith & Bernard Trontin"
ISRC DEM840000082
FLAGS DCP
INDEX 01 00:00:00
FILE "10 - Nice Giant.wav" WAVE
TRACK 10 AUDIO
TITLE "Nice Giant"
PERFORMER "Michel Wintsch, Franziska Baumann, Fred Frith & Bernard Trontin"
ISRC DEM840000083
FLAGS DCP
INDEX 01 00:00:00
FILE "11 - Two Stars (Instead of One).wav" WAVE
TRACK 11 AUDIO
TITLE "Two Stars (Instead of One)"
PERFORMER "Michel Wintsch, Franziska Baumann, Fred Frith & Bernard Trontin"
ISRC DEM840000084
FLAGS DCP
INDEX 01 00:00:00
Any questions -> support@pro-jazz.com. По всем вопросам пишите -> support@pro-jazz.com
17:30
141
Нет комментариев. Ваш будет первым!