Вы используете незарегистрированную версию компонента "Вкладки"!

Поиск

(Free Improvisation) Fredrik Soegaard - Hasse Poulsen - ...And We Also Caught A Fish - 2005, FLAC (tracks+.cue), lossless

(Free Improvisation) Fredrik Soegaard - Hasse Poulsen - ...And We Also Caught A Fish - 2005, FLAC (tracks+.cue), lossless
Треклист:
Fredrik Soegaard - Hasse Poulsen / ...And We Also Caught A Fish
Жанр: Free Improvisation
Страна-производитель диска: UK
Год издания: 2005
Издатель (лейбл): Leo Records
Номер по каталогу: CD LR 436
Страна: Finland
Аудиокодек: FLAC (*.flac)
Тип рипа: tracks+.cue
Битрейт аудио: lossless
Продолжительность: 1:04:38.
Источник (релизер): clustert
Наличие сканов в содержимом раздачи: да
Треклист:
01. Untitled 01 [0:09:50.29]
02. Untitled 02 [0:06:54.02]
03. Untitled 03 [0:04:23.34]
04. Untitled 04 [0:05:21.49]
05. Untitled 05 [0:07:50.65]
06. Untitled 06 [0:09:13.44]
07. Untitled 07 [0:07:28.03]
08. Untitled 08 [0:13:36.54]
 
Лог создания рипа
Exact Audio Copy V1.0 beta 3 from 29. August 2011
Отчёт EAC об извлечении, выполненном 24. августа 2013, 21:39
Fredrik Soegaard - Hasse Poulsen / ...And We Also Caught A Fish
Дисковод: ASUS DRW-1814BLT Adapter: 4 ID: 0
Режим чтения : Достоверность
Использование точного потока : Да
Отключение кэша аудио : Да
Использование указателей C2 : Нет
Коррекция смещения при чтении : 6
Способность читать области Lead-in и Lead-out : Нет
Заполнение пропущенных сэмплов тишиной : Да
Удаление блоков с тишиной в начале и конце : Нет
При вычислениях CRC использовались нулевые сэмплы : Да
Интерфейс : Встроенный Win32-интерфейс для Win NT/2000
Обработка зазоров : Добавлено к предыдущему треку
Выходной формат : Пользовательский кодировщик
Выбранный битрейт : 128 kBit/s
Качество : Высокий
Добавление ID3-тега : Нет
Утилита сжатия : C:\Program Files\Exact Audio Copy\Flac\flac.exe
Дополнительные параметры : -V -8 -T "Genre=%genre%" -T "Artist=%artist%" -T "Title=%title%" -T "Album=%albumtitle%" -T "Date=%year%" -T "Tracknumber=%tracknr%" -T "Comment=EAC1.0b2 FLAC -8" %source%
TOC извлечённого CD
Трек | Старт | Длительность | Начальный сектор | Конечный сектор
---------------------------------------------------------------------
1 | 0:00.00 | 9:50.29 | 0 | 44278
2 | 9:50.29 | 6:54.02 | 44279 | 75330
3 | 16:44.31 | 4:23.34 | 75331 | 95089
4 | 21:07.65 | 5:21.49 | 95090 | 119213
5 | 26:29.39 | 7:50.65 | 119214 | 154528
6 | 34:20.29 | 9:13.44 | 154529 | 196047
7 | 43:33.73 | 7:28.03 | 196048 | 229650
8 | 51:02.01 | 13:36.54 | 229651 | 290904
Трек 1
Имя файла R:\Раздача 4\Fredrik Soegaard - Hasse Poulsen - 2005 - And We Also Caught A Fish\01 Untitled 01.wav
Длина предзазора 0:00:02.00
Пиковый уровень 98.9 %
Скорость извлечения 5.9 X
Качество трека 100.0 %
CRC теста 0868E103
CRC копии 0868E103
Копирование... OK
Трек 2
Имя файла R:\Раздача 4\Fredrik Soegaard - Hasse Poulsen - 2005 - And We Also Caught A Fish\02 Untitled 02.wav
Пиковый уровень 74.3 %
Скорость извлечения 6.7 X
Качество трека 100.0 %
CRC теста EFD4B627
CRC копии EFD4B627
Копирование... OK
Трек 3
Имя файла R:\Раздача 4\Fredrik Soegaard - Hasse Poulsen - 2005 - And We Also Caught A Fish\03 Untitled 03.wav
Пиковый уровень 90.9 %
Скорость извлечения 7.0 X
Качество трека 100.0 %
CRC теста ACD1775C
CRC копии ACD1775C
Копирование... OK
Трек 4
Имя файла R:\Раздача 4\Fredrik Soegaard - Hasse Poulsen - 2005 - And We Also Caught A Fish\04 Untitled 04.wav
Пиковый уровень 98.8 %
Скорость извлечения 7.6 X
Качество трека 100.0 %
CRC теста 251DB51A
CRC копии 251DB51A
Копирование... OK
Трек 5
Имя файла R:\Раздача 4\Fredrik Soegaard - Hasse Poulsen - 2005 - And We Also Caught A Fish\05 Untitled 05.wav
Пиковый уровень 98.8 %
Скорость извлечения 8.5 X
Качество трека 100.0 %
CRC теста A6CB7646
CRC копии A6CB7646
Копирование... OK
Трек 6
Имя файла R:\Раздача 4\Fredrik Soegaard - Hasse Poulsen - 2005 - And We Also Caught A Fish\06 Untitled 06.wav
Пиковый уровень 88.1 %
Скорость извлечения 9.3 X
Качество трека 100.0 %
CRC теста 974612ED
CRC копии 974612ED
Копирование... OK
Трек 7
Имя файла R:\Раздача 4\Fredrik Soegaard - Hasse Poulsen - 2005 - And We Also Caught A Fish\07 Untitled 07.wav
Пиковый уровень 87.4 %
Скорость извлечения 9.5 X
Качество трека 100.0 %
CRC теста DA29D264
CRC копии DA29D264
Копирование... OK
Трек 8
Имя файла R:\Раздача 4\Fredrik Soegaard - Hasse Poulsen - 2005 - And We Also Caught A Fish\08 Untitled 08.wav
Пиковый уровень 87.2 %
Скорость извлечения 9.6 X
Качество трека 99.9 %
CRC теста 7A1F3573
CRC копии 7A1F3573
Копирование... OK
Ошибок не произошло
Конец отчёта
==== Контрольная сумма отчёта DDA95C9B51EB9812B3E1F6EC57B5084D117721AEB588C3064449799DE49919C2 ====
 
Содержание индексной карты (.CUE)
REM GENRE Jazz
REM DATE 2005
REM DISCID 600F2608
REM COMMENT "ExactAudioCopy v1.0b3"
PERFORMER "Fredrik Soegaard - Hasse Poulsen"
TITLE "...And We Also Caught A Fish"
FILE "01 Untitled 01.wav" WAVE
TRACK 01 AUDIO
TITLE "Untitled 01"
PERFORMER "Fredrik Soegaard - Hasse Poulsen"
INDEX 01 00:00:00
FILE "02 Untitled 02.wav" WAVE
TRACK 02 AUDIO
TITLE "Untitled 02"
PERFORMER "Fredrik Soegaard - Hasse Poulsen"
INDEX 01 00:00:00
FILE "03 Untitled 03.wav" WAVE
TRACK 03 AUDIO
TITLE "Untitled 03"
PERFORMER "Fredrik Soegaard - Hasse Poulsen"
INDEX 01 00:00:00
FILE "04 Untitled 04.wav" WAVE
TRACK 04 AUDIO
TITLE "Untitled 04"
PERFORMER "Fredrik Soegaard - Hasse Poulsen"
INDEX 01 00:00:00
FILE "05 Untitled 05.wav" WAVE
TRACK 05 AUDIO
TITLE "Untitled 05"
PERFORMER "Fredrik Soegaard - Hasse Poulsen"
INDEX 01 00:00:00
FILE "06 Untitled 06.wav" WAVE
TRACK 06 AUDIO
TITLE "Untitled 06"
PERFORMER "Fredrik Soegaard - Hasse Poulsen"
INDEX 01 00:00:00
FILE "07 Untitled 07.wav" WAVE
TRACK 07 AUDIO
TITLE "Untitled 07"
PERFORMER "Fredrik Soegaard - Hasse Poulsen"
INDEX 01 00:00:00
FILE "08 Untitled 08.wav" WAVE
TRACK 08 AUDIO
TITLE "Untitled 08"
PERFORMER "Fredrik Soegaard - Hasse Poulsen"
INDEX 01 00:00:00
Any questions -> support@pro-jazz.com. По всем вопросам пишите -> support@pro-jazz.com
17:29
167
Нет комментариев. Ваш будет первым!