Вы используете незарегистрированную версию компонента "Вкладки"!

Поиск

(Avant-Garde Jazz, Free Improvisation) Brad Dutz & Chris Wabich - 2 Timing - 2010, FLAC (tracks+.cue), lossless

(Avant-Garde Jazz, Free Improvisation) Brad Dutz & Chris Wabich - 2 Timing - 2010, FLAC (tracks+.cue), lossless
Треклист:
Brad Dutz & Chris Wabich / 2 Timing
Жанр: Avant-Garde Jazz, Free Improvisation
Страна-производитель диска: US
Год издания: 2010
Издатель (лейбл): Brad Dutz self-released CD-R
Номер по каталогу: ADW09100
Страна: US
Аудиокодек: FLAC (*.flac)
Тип рипа: tracks+.cue
Битрейт аудио: lossless
Продолжительность: 57:03
Источник (релизер): свой фирменный диск
Наличие сканов в содержимом раздачи:
Треклист:
1 Stars And Stripes For A Minute 4:09
2 Bolivian Alarm Clock 2:45
3 My Pet Lava Flea 1:46
4 Wabash Cannonball 3:46
5 Eel Form 2:58
6 Spleen Rescue 1:26
7 Merket 4:28
8 Old Spaghetti 5:19
9 Fried Salmon Image 1:07
10 Graceful Assassin 2:25
11 Jeff Jack, Seller Of Digital Products 2:50
12 Omnivorous Palm Trees 2:39
13 Diet Bog Bone 1:57
14 Haircut 1:58
15 Assassin's Ballet Teacher 3:03
16 Pharynx 1:44
17 Snitch Henderson 2:47
18 Liqufied Inholers 1:51
19 Steven Hawking 5:46
20 One Note Samba 2:21
 
Лог создания рипа
Exact Audio Copy V1.0 beta 3 from 29. August 2011
EAC extraction logfile from 24. August 2013, 22:29
Brad Dutz & Chris Wabich / 2 Timing
Used drive : PIONEER DVD-RW DVR-115D Adapter: 0 ID: 0
Read mode : Secure
Utilize accurate stream : Yes
Defeat audio cache : Yes
Make use of C2 pointers : No
Read offset correction : 48
Overread into Lead-In and Lead-Out : No
Fill up missing offset samples with silence : Yes
Delete leading and trailing silent blocks : No
Null samples used in CRC calculations : Yes
Used interface : Installed external ASPI interface
Gap handling : Appended to previous track
Used output format : User Defined Encoder
Selected bitrate : 896 kBit/s
Quality : High
Add ID3 tag : No
Command line compressor : C:\Program Files\Exact Audio Copy\FLAC\FLAC.EXE
Additional command line options : -6 -V -T "ARTIST=%artist%" -T "TITLE=%title%" -T "ALBUM=%albumtitle%" -T "DATE=%year%" -T "TRACKNUMBER=%tracknr%" -T "GENRE=%genre%" -T "COMMENT=%comment%" -T "BAND=%albuminterpret%" -T "COMPOSER=%composer%" %haslyrics%--tag-from-file=LYRICS="%lyricsfile%"%haslyrics% -T "DISCNUMBER=%cdnumber%" -T "TOTALDISCS=%totalcds%" -T "TOTALTRACKS=%numtracks%" %hascover%--picture="%coverfile%"%hascover% %source% -o %dest%
TOC of the extracted CD
Track | Start | Length | Start sector | End sector
---------------------------------------------------------
1 | 0:00.00 | 4:08.66 | 0 | 18665
2 | 4:08.66 | 2:45.21 | 18666 | 31061
3 | 6:54.12 | 1:46.31 | 31062 | 39042
4 | 8:40.43 | 3:46.04 | 39043 | 55996
5 | 12:26.47 | 2:57.70 | 55997 | 69341
6 | 15:24.42 | 1:25.51 | 69342 | 75767
7 | 16:50.18 | 4:27.56 | 75768 | 95848
8 | 21:17.74 | 5:18.40 | 95849 | 119738
9 | 26:36.39 | 1:06.72 | 119739 | 124760
10 | 27:43.36 | 2:24.68 | 124761 | 135628
11 | 30:08.29 | 2:49.40 | 135629 | 148343
12 | 32:57.69 | 2:38.51 | 148344 | 160244
13 | 35:36.45 | 1:57.34 | 160245 | 169053
14 | 37:34.04 | 1:58.36 | 169054 | 177939
15 | 39:32.40 | 3:02.60 | 177940 | 191649
16 | 42:35.25 | 1:44.03 | 191650 | 199452
17 | 44:19.28 | 2:47.07 | 199453 | 211984
18 | 47:06.35 | 1:50.43 | 211985 | 220277
19 | 48:57.03 | 5:45.54 | 220278 | 246206
20 | 54:42.57 | 2:20.45 | 246207 | 256751
Track 1
Filename D:\zzz\01 - Stars And Stripes For A Minute.wav
Pre-gap length 0:00:02.00
Peak level 100.0 %
Extraction speed 4.6 X
Track quality 100.0 %
Test CRC 0799C9E9
Copy CRC 0799C9E9
Track not present in AccurateRip database
Copy OK
Track 2
Filename D:\zzz\02 - Bolivian Alarm Clock.wav
Peak level 100.0 %
Extraction speed 4.6 X
Track quality 100.0 %
Test CRC A7F0E313
Copy CRC A7F0E313
Track not present in AccurateRip database
Copy OK
Track 3
Filename D:\zzz\03 - My Pet Lava Flea.wav
Peak level 59.7 %
Extraction speed 4.4 X
Track quality 100.0 %
Test CRC 2ABF7AD8
Copy CRC 2ABF7AD8
Track not present in AccurateRip database
Copy OK
Track 4
Filename D:\zzz\04 - Wabash Cannonball.wav
Peak level 100.0 %
Extraction speed 5.3 X
Track quality 100.0 %
Test CRC 5DB61E1E
Copy CRC 5DB61E1E
Track not present in AccurateRip database
Copy OK
Track 5
Filename D:\zzz\05 - Eel Farm.wav
Peak level 100.0 %
Extraction speed 4.6 X
Track quality 99.9 %
Test CRC F885835A
Copy CRC F885835A
Track not present in AccurateRip database
Copy OK
Track 6
Filename D:\zzz\06 - Spleen Rescue.wav
Peak level 100.0 %
Extraction speed 3.6 X
Track quality 99.8 %
Test CRC CDA2549E
Copy CRC CDA2549E
Track not present in AccurateRip database
Copy OK
Track 7
Filename D:\zzz\07 - Merket.wav
Peak level 100.0 %
Extraction speed 6.0 X
Track quality 100.0 %
Test CRC 3D663E0A
Copy CRC 3D663E0A
Track not present in AccurateRip database
Copy OK
Track 8
Filename D:\zzz\08 - Old Spaghetti.wav
Peak level 100.0 %
Extraction speed 6.5 X
Track quality 100.0 %
Test CRC D45EC158
Copy CRC D45EC158
Track not present in AccurateRip database
Copy OK
Track 9
Filename D:\zzz\09 - Fried Salmon Image.wav
Peak level 93.9 %
Extraction speed 4.7 X
Track quality 100.0 %
Test CRC 753477B7
Copy CRC 753477B7
Track not present in AccurateRip database
Copy OK
Track 10
Filename D:\zzz\10 - Graceful Assassin.wav
Peak level 56.0 %
Extraction speed 4.3 X
Track quality 99.8 %
Test CRC 9E85FE42
Copy CRC 9E85FE42
Track not present in AccurateRip database
Copy OK
Track 11
Filename D:\zzz\11 - Jeff Jack, Seller Of Digital Products.wav
Peak level 100.0 %
Extraction speed 6.3 X
Track quality 100.0 %
Test CRC 51B8A619
Copy CRC 51B8A619
Track not present in AccurateRip database
Copy OK
Track 12
Filename D:\zzz\12 - Omnivorous Palm Trees.wav
Peak level 80.2 %
Extraction speed 5.4 X
Track quality 99.9 %
Test CRC 2EAF7133
Copy CRC 2EAF7133
Track not present in AccurateRip database
Copy OK
Track 13
Filename D:\zzz\13 - Diet Dog Bone.wav
Peak level 82.0 %
Extraction speed 6.0 X
Track quality 100.0 %
Test CRC 474A4E2A
Copy CRC 474A4E2A
Track not present in AccurateRip database
Copy OK
Track 14
Filename D:\zzz\14 - Haircut.wav
Peak level 77.8 %
Extraction speed 6.2 X
Track quality 100.0 %
Test CRC FA1A848F
Copy CRC FA1A848F
Track not present in AccurateRip database
Copy OK
Track 15
Filename D:\zzz\15 - Assassin's Ballet Teacher.wav
Peak level 83.5 %
Extraction speed 6.8 X
Track quality 100.0 %
Test CRC CAEF314D
Copy CRC CAEF314D
Track not present in AccurateRip database
Copy OK
Track 16
Filename D:\zzz\16 - Pharynx.wav
Peak level 100.0 %
Extraction speed 6.1 X
Track quality 100.0 %
Test CRC 1B1B464E
Copy CRC 1B1B464E
Track not present in AccurateRip database
Copy OK
Track 17
Filename D:\zzz\17 - Snitch Henderson.wav
Peak level 100.0 %
Extraction speed 6.9 X
Track quality 100.0 %
Test CRC 2464D2DC
Copy CRC 2464D2DC
Track not present in AccurateRip database
Copy OK
Track 18
Filename D:\zzz\18 - Liquified Inhalers.wav
Peak level 100.0 %
Extraction speed 5.2 X
Track quality 99.9 %
Test CRC E91F0C62
Copy CRC E91F0C62
Track not present in AccurateRip database
Copy OK
Track 19
Filename D:\zzz\19 - Steven Hawking.wav
Peak level 100.0 %
Extraction speed 7.9 X
Track quality 100.0 %
Test CRC 3F35F119
Copy CRC 3F35F119
Track not present in AccurateRip database
Copy OK
Track 20
Filename D:\zzz\20 - One Note Samba.wav
Peak level 100.0 %
Extraction speed 7.1 X
Track quality 100.0 %
Test CRC A725E04E
Copy CRC A725E04E
Track not present in AccurateRip database
Copy OK
None of the tracks are present in the AccurateRip database
No errors occurred
End of status report
==== Log checksum 370A3B6A9774FA326F9E3AA6C8DD87D137E42B696EF74AEDA8AE1345C5A10F2A ====
 
Содержание индексной карты (.CUE)
REM GENRE "Avant-Garde Jazz"
REM DATE 2010
REM DISCID 310D5F14
REM COMMENT "ExactAudioCopy v1.0b3"
PERFORMER "Brad Dutz & Chris Wabich"
TITLE "2 Timing"
FILE "01 - Stars And Stripes For A Minute.wav" WAVE
TRACK 01 AUDIO
TITLE "Stars And Stripes For A Minute"
PERFORMER "Brad Dutz & Chris Wabich"
INDEX 01 00:00:00
FILE "02 - Bolivian Alarm Clock.wav" WAVE
TRACK 02 AUDIO
TITLE "Bolivian Alarm Clock"
PERFORMER "Brad Dutz & Chris Wabich"
INDEX 01 00:00:00
FILE "03 - My Pet Lava Flea.wav" WAVE
TRACK 03 AUDIO
TITLE "My Pet Lava Flea"
PERFORMER "Brad Dutz & Chris Wabich"
INDEX 01 00:00:00
FILE "04 - Wabash Cannonball.wav" WAVE
TRACK 04 AUDIO
TITLE "Wabash Cannonball"
PERFORMER "Brad Dutz & Chris Wabich"
INDEX 01 00:00:00
FILE "05 - Eel Farm.wav" WAVE
TRACK 05 AUDIO
TITLE "Eel Farm"
PERFORMER "Brad Dutz & Chris Wabich"
INDEX 01 00:00:00
FILE "06 - Spleen Rescue.wav" WAVE
TRACK 06 AUDIO
TITLE "Spleen Rescue"
PERFORMER "Brad Dutz & Chris Wabich"
INDEX 01 00:00:00
FILE "07 - Merket.wav" WAVE
TRACK 07 AUDIO
TITLE "Merket"
PERFORMER "Brad Dutz & Chris Wabich"
INDEX 01 00:00:00
FILE "08 - Old Spaghetti.wav" WAVE
TRACK 08 AUDIO
TITLE "Old Spaghetti"
PERFORMER "Brad Dutz & Chris Wabich"
INDEX 01 00:00:00
FILE "09 - Fried Salmon Image.wav" WAVE
TRACK 09 AUDIO
TITLE "Fried Salmon Image"
PERFORMER "Brad Dutz & Chris Wabich"
INDEX 01 00:00:00
FILE "10 - Graceful Assassin.wav" WAVE
TRACK 10 AUDIO
TITLE "Graceful Assassin"
PERFORMER "Brad Dutz & Chris Wabich"
INDEX 01 00:00:00
FILE "11 - Jeff Jack, Seller Of Digital Products.wav" WAVE
TRACK 11 AUDIO
TITLE "Jeff Jack, Seller Of Digital Products"
PERFORMER "Brad Dutz & Chris Wabich"
INDEX 01 00:00:00
FILE "12 - Omnivorous Palm Trees.wav" WAVE
TRACK 12 AUDIO
TITLE "Omnivorous Palm Trees"
PERFORMER "Brad Dutz & Chris Wabich"
INDEX 01 00:00:00
FILE "13 - Diet Dog Bone.wav" WAVE
TRACK 13 AUDIO
TITLE "Diet Dog Bone"
PERFORMER "Brad Dutz & Chris Wabich"
INDEX 01 00:00:00
FILE "14 - Haircut.wav" WAVE
TRACK 14 AUDIO
TITLE "Haircut"
PERFORMER "Brad Dutz & Chris Wabich"
INDEX 01 00:00:00
FILE "15 - Assassin's Ballet Teacher.wav" WAVE
TRACK 15 AUDIO
TITLE "Assassin's Ballet Teacher"
PERFORMER "Brad Dutz & Chris Wabich"
INDEX 01 00:00:00
FILE "16 - Pharynx.wav" WAVE
TRACK 16 AUDIO
TITLE "Pharynx"
PERFORMER "Brad Dutz & Chris Wabich"
INDEX 01 00:00:00
FILE "17 - Snitch Henderson.wav" WAVE
TRACK 17 AUDIO
TITLE "Snitch Henderson"
PERFORMER "Brad Dutz & Chris Wabich"
INDEX 01 00:00:00
FILE "18 - Liquified Inhalers.wav" WAVE
TRACK 18 AUDIO
TITLE "Liquified Inhalers"
PERFORMER "Brad Dutz & Chris Wabich"
INDEX 01 00:00:00
FILE "19 - Steven Hawking.wav" WAVE
TRACK 19 AUDIO
TITLE "Steven Hawking"
PERFORMER "Brad Dutz & Chris Wabich"
INDEX 01 00:00:00
FILE "20 - One Note Samba.wav" WAVE
TRACK 20 AUDIO
TITLE "One Note Samba"
PERFORMER "Brad Dutz & Chris Wabich"
INDEX 01 00:00:00
 
Лог проверки качества
d:\>d:\aucdtect -d/-m0 d:\zzz\*.wav
auCDtect: CD records authenticity detector, version 0.8.2
Copyright (c) 2004 Oleg Berngardt. All rights reserved.
Copyright (c) 2004 Alexander Djourik. All rights reserved.
------------------------------------------------------------
Processing file: [01. Stars And Stripes For A Minute.wav]
------------------------------------------------------------
This track looks like CDDA with probability 100%
------------------------------------------------------------
Processing file: [02. Bolivian Alarm Clock.wav]
------------------------------------------------------------
This track looks like CDDA with probability 100%
------------------------------------------------------------
Processing file: [03. My Pet Lava Flea.wav]
------------------------------------------------------------
This track looks like CDDA with probability 92%
------------------------------------------------------------
Processing file: [04. Wabash Cannonball.wav]
------------------------------------------------------------
This track looks like CDDA with probability 100%
------------------------------------------------------------
Processing file: [05. Eel Farm.wav]
------------------------------------------------------------
This track looks like CDDA with probability 100%
------------------------------------------------------------
Processing file: [06. Spleen Rescue.wav]
------------------------------------------------------------
This track looks like CDDA with probability 99%
------------------------------------------------------------
Processing file: [07. Merket.wav]
------------------------------------------------------------
This track looks like CDDA with probability 100%
------------------------------------------------------------
Processing file: [08. Old Spaghetti.wav]
------------------------------------------------------------
This track looks like CDDA with probability 100%
------------------------------------------------------------
Processing file: [09. Fried Salmon Image.wav]
------------------------------------------------------------
This track looks like CDDA with probability 100%
------------------------------------------------------------
Processing file: [10. Graceful Assassin.wav]
------------------------------------------------------------
This track looks like CDDA with probability 87%
------------------------------------------------------------
Processing file: [11. Jeff Jack, Seller Of Digital Products.wav]
------------------------------------------------------------
This track looks like CDDA with probability 100%
------------------------------------------------------------
Processing file: [12. Omnivorous Palm Trees.wav]
------------------------------------------------------------
This track looks like CDDA with probability 94%
------------------------------------------------------------
Processing file: [13. Diet Dog Bone.wav]
------------------------------------------------------------
This track looks like CDDA with probability 100%
------------------------------------------------------------
Processing file: [14. Haircut.wav]
------------------------------------------------------------
This track looks like CDDA with probability 100%
------------------------------------------------------------
Processing file: [15. Assassin's Ballet Teacher.wav]
------------------------------------------------------------
This track looks like CDDA with probability 100%
------------------------------------------------------------
Processing file: [16. Pharynx.wav]
------------------------------------------------------------
This track looks like CDDA with probability 100%
------------------------------------------------------------
Processing file: [17. Snitch Henderson.wav]
------------------------------------------------------------
This track looks like CDDA with probability 100%
------------------------------------------------------------
Processing file: [18. Liquified Inhalers.wav]
------------------------------------------------------------
This track looks like CDDA with probability 100%
------------------------------------------------------------
Processing file: [19. Steven Hawking.wav]
------------------------------------------------------------
This track looks like CDDA with probability 100%
------------------------------------------------------------
Processing file: [20. One Note Samba.wav]
------------------------------------------------------------
This track looks like CDDA with probability 100%
------------------------------------------------------------
Final Conclusion:
------------------------------------------------------------
These tracks looks like CDDA with probability 100%
 
Состав
Brad Dutz, Chris Wabich - miscellaneous percussion
Any questions -> support@pro-jazz.com. По всем вопросам пишите -> support@pro-jazz.com
17:29
133
Нет комментариев. Ваш будет первым!