Вы используете незарегистрированную версию компонента "Вкладки"!

Поиск

(Avant-Garde Jazz, Free Improvisation) Brad Dutz & John Holmes - Duets For Percussion - 1997, FLAC (tracks+.cue), lossless

(Avant-Garde Jazz, Free Improvisation) Brad Dutz & John Holmes - Duets For Percussion - 1997, FLAC (tracks+.cue), lossless
Треклист:
Brad Dutz & John Holmes / Duets For Percussion
Жанр: Avant-Garde Jazz, Free Improvisation
Страна-производитель диска: US
Год издания: 1997
Издатель (лейбл): Truemedia Jazzworks
Номер по каталогу: D 97804
Страна: US
Аудиокодек: FLAC (*.flac)
Тип рипа: tracks+.cue
Битрейт аудио: lossless
Продолжительность: 69:48
Источник (релизер): свой фирменный диск
Наличие сканов в содержимом раздачи:
Треклист:
1 Spit It Out 5:53
2 Limp Forever 5:19
3 Jordan Retires 7:06
4 Feed The Lizard 4:32
5 Beyond The Ancient 7:03
6 Displace The Kits 6:58
7 Strong Coffee 2:45
8 Ornette's Quest 4:16
9 Zero Zone 2:47
10 Trains 4:19
11 Waaay Too Much! 6:58
12 Coup 8:24
13 No, It's Fern 3:13
 
Лог создания рипа
Exact Audio Copy V1.0 beta 3 from 29. August 2011
EAC extraction logfile from 24. August 2013, 18:42
Brad Dutz & John Holmes / Duets for Percussion
Used drive : PIONEER DVD-RW DVR-115D Adapter: 0 ID: 0
Read mode : Secure
Utilize accurate stream : Yes
Defeat audio cache : Yes
Make use of C2 pointers : No
Read offset correction : 48
Overread into Lead-In and Lead-Out : No
Fill up missing offset samples with silence : Yes
Delete leading and trailing silent blocks : No
Null samples used in CRC calculations : Yes
Used interface : Installed external ASPI interface
Gap handling : Appended to previous track
Used output format : User Defined Encoder
Selected bitrate : 896 kBit/s
Quality : High
Add ID3 tag : No
Command line compressor : C:\Program Files\Exact Audio Copy\FLAC\FLAC.EXE
Additional command line options : -6 -V -T "ARTIST=%artist%" -T "TITLE=%title%" -T "ALBUM=%albumtitle%" -T "DATE=%year%" -T "TRACKNUMBER=%tracknr%" -T "GENRE=%genre%" -T "COMMENT=%comment%" -T "BAND=%albuminterpret%" -T "COMPOSER=%composer%" %haslyrics%--tag-from-file=LYRICS="%lyricsfile%"%haslyrics% -T "DISCNUMBER=%cdnumber%" -T "TOTALDISCS=%totalcds%" -T "TOTALTRACKS=%numtracks%" %hascover%--picture="%coverfile%"%hascover% %source% -o %dest%
TOC of the extracted CD
Track | Start | Length | Start sector | End sector
---------------------------------------------------------
1 | 0:00.00 | 5:53.32 | 0 | 26506
2 | 5:53.32 | 5:13.65 | 26507 | 50046
3 | 11:07.22 | 7:11.03 | 50047 | 82374
4 | 18:18.25 | 4:37.40 | 82375 | 103189
5 | 22:55.65 | 7:03.67 | 103190 | 134981
6 | 29:59.57 | 6:59.52 | 134982 | 166458
7 | 36:59.34 | 2:46.00 | 166459 | 178908
8 | 39:45.34 | 4:17.33 | 178909 | 198216
9 | 44:02.67 | 2:47.48 | 198217 | 210789
10 | 46:50.40 | 4:25.10 | 210790 | 230674
11 | 51:15.50 | 6:48.35 | 230675 | 261309
12 | 58:04.10 | 8:27.70 | 261310 | 299404
13 | 66:32.05 | 3:16.62 | 299405 | 314166
Track 1
Filename D:\zzz\01 - Spit It Out.wav
Pre-gap length 0:00:02.00
Peak level 99.9 %
Extraction speed 4.8 X
Track quality 100.0 %
Test CRC 040F9004
Copy CRC 040F9004
Track not present in AccurateRip database
Copy OK
Track 2
Filename D:\zzz\02 - Limp Forever.wav
Peak level 99.9 %
Extraction speed 5.3 X
Track quality 100.0 %
Test CRC B0A22A8C
Copy CRC B0A22A8C
Track not present in AccurateRip database
Copy OK
Track 3
Filename D:\zzz\03 - Jordan Retires.wav
Peak level 99.9 %
Extraction speed 6.1 X
Track quality 100.0 %
Test CRC FE803585
Copy CRC FE803585
Track not present in AccurateRip database
Copy OK
Track 4
Filename D:\zzz\04 - Feed The Lizard.wav
Peak level 99.9 %
Extraction speed 5.6 X
Track quality 99.9 %
Test CRC E7F3FB56
Copy CRC E7F3FB56
Track not present in AccurateRip database
Copy OK
Track 5
Filename D:\zzz\05 - Beyond The Ancient.wav
Peak level 100.0 %
Extraction speed 7.0 X
Track quality 100.0 %
Test CRC 536C0B86
Copy CRC 536C0B86
Track not present in AccurateRip database
Copy OK
Track 6
Filename D:\zzz\06 - Displace The Kits.wav
Peak level 99.9 %
Extraction speed 7.4 X
Track quality 100.0 %
Test CRC 3F0EADAD
Copy CRC 3F0EADAD
Track not present in AccurateRip database
Copy OK
Track 7
Filename D:\zzz\07 - Strong Coffee.wav
Peak level 99.9 %
Extraction speed 5.9 X
Track quality 99.9 %
Test CRC 848DF138
Copy CRC 848DF138
Track not present in AccurateRip database
Copy OK
Track 8
Filename D:\zzz\08 - Ornette's Quest.wav
Peak level 99.9 %
Extraction speed 7.6 X
Track quality 100.0 %
Test CRC 92D4A4B4
Copy CRC 92D4A4B4
Track not present in AccurateRip database
Copy OK
Track 9
Filename D:\zzz\09 - Zero Zone.wav
Peak level 100.0 %
Extraction speed 6.2 X
Track quality 99.9 %
Test CRC 203033CA
Copy CRC 203033CA
Track not present in AccurateRip database
Copy OK
Track 10
Filename D:\zzz\10 - Trains.wav
Peak level 99.9 %
Extraction speed 8.0 X
Track quality 100.0 %
Test CRC 3E521643
Copy CRC 3E521643
Track not present in AccurateRip database
Copy OK
Track 11
Filename D:\zzz\11 - Waaay Too Much!.wav
Peak level 99.9 %
Extraction speed 8.6 X
Track quality 100.0 %
Test CRC FAFDD281
Copy CRC FAFDD281
Track not present in AccurateRip database
Copy OK
Track 12
Filename D:\zzz\12 - Coup.wav
Peak level 99.9 %
Extraction speed 8.6 X
Track quality 99.9 %
Test CRC A2F4D69E
Copy CRC A2F4D69E
Track not present in AccurateRip database
Copy OK
Track 13
Filename D:\zzz\13 - No, It's Fern.wav
Peak level 99.9 %
Extraction speed 8.4 X
Track quality 100.0 %
Test CRC 0D0ADE65
Copy CRC 0D0ADE65
Track not present in AccurateRip database
Copy OK
None of the tracks are present in the AccurateRip database
No errors occurred
End of status report
==== Log checksum FCFA7BDBB0BEF569800D8B64B4B3091676C03DBA886ABC2518FF2A45E49DA321 ====
 
Содержание индексной карты (.CUE)
REM GENRE Avant-Garde
REM DATE 1997
REM DISCID B9105C0D
REM COMMENT "ExactAudioCopy v1.0b3"
PERFORMER "Brad Dutz & John Holmes"
TITLE "Duets for Percussion"
FILE "01 - Spit It Out.wav" WAVE
TRACK 01 AUDIO
TITLE "Spit It Out"
PERFORMER "Brad Dutz & John Holmes"
INDEX 01 00:00:00
FILE "02 - Limp Forever.wav" WAVE
TRACK 02 AUDIO
TITLE "Limp Forever"
PERFORMER "Brad Dutz & John Holmes"
INDEX 01 00:00:00
FILE "03 - Jordan Retires.wav" WAVE
TRACK 03 AUDIO
TITLE "Jordan Retires"
PERFORMER "Brad Dutz & John Holmes"
INDEX 01 00:00:00
FILE "04 - Feed The Lizard.wav" WAVE
TRACK 04 AUDIO
TITLE "Feed The Lizard"
PERFORMER "Brad Dutz & John Holmes"
INDEX 01 00:00:00
FILE "05 - Beyond The Ancient.wav" WAVE
TRACK 05 AUDIO
TITLE "Beyond The Ancient"
PERFORMER "Brad Dutz & John Holmes"
INDEX 01 00:00:00
FILE "06 - Displace The Kits.wav" WAVE
TRACK 06 AUDIO
TITLE "Displace The Kits"
PERFORMER "Brad Dutz & John Holmes"
INDEX 01 00:00:00
FILE "07 - Strong Coffee.wav" WAVE
TRACK 07 AUDIO
TITLE "Strong Coffee"
PERFORMER "Brad Dutz & John Holmes"
INDEX 01 00:00:00
FILE "08 - Ornette's Quest.wav" WAVE
TRACK 08 AUDIO
TITLE "Ornette's Quest"
PERFORMER "Brad Dutz & John Holmes"
INDEX 01 00:00:00
FILE "09 - Zero Zone.wav" WAVE
TRACK 09 AUDIO
TITLE "Zero Zone"
PERFORMER "Brad Dutz & John Holmes"
INDEX 01 00:00:00
FILE "10 - Trains.wav" WAVE
TRACK 10 AUDIO
TITLE "Trains"
PERFORMER "Brad Dutz & John Holmes"
INDEX 01 00:00:00
FILE "11 - Waaay Too Much!.wav" WAVE
TRACK 11 AUDIO
TITLE "Waaay Too Much!"
PERFORMER "Brad Dutz & John Holmes"
INDEX 01 00:00:00
FILE "12 - Coup.wav" WAVE
TRACK 12 AUDIO
TITLE "Coup"
PERFORMER "Brad Dutz & John Holmes"
INDEX 01 00:00:00
FILE "13 - No, It's Fern.wav" WAVE
TRACK 13 AUDIO
TITLE "No, It's Fern"
PERFORMER "Brad Dutz & John Holmes"
INDEX 01 00:00:00
 
Лог проверки качества
d:\>d:\aucdtect -d/-m0 d:\zzz\*.wav
auCDtect: CD records authenticity detector, version 0.8.2
Copyright (c) 2004 Oleg Berngardt. All rights reserved.
Copyright (c) 2004 Alexander Djourik. All rights reserved.
------------------------------------------------------------
Processing file: [01. Spit It Out.wav]
------------------------------------------------------------
This track looks like CDDA with probability 100%
------------------------------------------------------------
Processing file: [02. Limp Forever.wav]
------------------------------------------------------------
This track looks like CDDA with probability 100%
------------------------------------------------------------
Processing file: [03. Jordan Retires.wav]
------------------------------------------------------------
This track looks like CDDA with probability 100%
------------------------------------------------------------
Processing file: [04. Feed The Lizard.wav]
------------------------------------------------------------
This track looks like CDDA with probability 100%
------------------------------------------------------------
Processing file: [05. Beyond The Ancient.wav]
------------------------------------------------------------
This track looks like CDDA with probability 100%
------------------------------------------------------------
Processing file: [06. Displace The Kits.wav]
------------------------------------------------------------
This track looks like CDDA with probability 100%
------------------------------------------------------------
Processing file: [07. Strong Coffee.wav]
------------------------------------------------------------
This track looks like CDDA with probability 100%
------------------------------------------------------------
Processing file: [08. Ornette's Quest.wav]
------------------------------------------------------------
This track looks like CDDA with probability 100%
------------------------------------------------------------
Processing file: [09. Zero Zone.wav]
------------------------------------------------------------
This track looks like CDDA with probability 100%
------------------------------------------------------------
Processing file: [10. Trains.wav]
------------------------------------------------------------
This track looks like CDDA with probability 99%
------------------------------------------------------------
Processing file: [11. Waaay Too Much!.wav]
------------------------------------------------------------
This track looks like CDDA with probability 100%
------------------------------------------------------------
Processing file: [12. Coup.wav]
------------------------------------------------------------
This track looks like CDDA with probability 100%
------------------------------------------------------------
Processing file: [13. No, It's Fern.wav]
------------------------------------------------------------
This track looks like CDDA with probability 100%
------------------------------------------------------------
Final Conclusion:
------------------------------------------------------------
These tracks looks like CDDA with probability 100%
 
Состав
We used the following instruments on this recording:
Drumkit, Hybrid Kit, Congas, Melodica, Marimba, Xylophone, Bells, Frying pans, Artillery shells, Candy tins, Kalimba, Kanjira, Frame drums, Bones, Trumpet, ARP synths, MOOG synths, Cowbells, Bata, Bodhran, Metal stew pots, Bundt pans, Children's toys, Pandiero, Engelhart Bells, Lentil Bean Shakers, Cajon, Harmonica, Pods, Indian Bells, Penny whistle, Paiste Cymbals and gongs, Woodblocks, and some other products we forgot to list.
On 4.:
Percussion [Lego Blocks] – Jasper, Vocals – Kaoru
По всем вопросам пишите личное сообщение пользователю M0p94ok.
17:28
146
Нет комментариев. Ваш будет первым!