Вы используете незарегистрированную версию компонента "Вкладки"!

Поиск

(Free Improvisation, Altri Suoni) Double Jeu - Yellow Landscapes - 2002, FLAC (tracks+.cue), lossless

(Free Improvisation, Altri Suoni) Double Jeu - Yellow Landscapes - 2002, FLAC (tracks+.cue), lossless
Треклист:
Double Jeu / Yellow Landscapes
Жанр: Free Improvisation, Altri Suoni
Страна-производитель диска: Switzerland
Год издания: 2002
Издатель (лейбл): Altri Suoni
Номер по каталогу: AS 142
Аудиокодек: FLAC (*.flac)
Тип рипа: tracks+.cue
Битрейт аудио: lossless
Продолжительность: 53:22
Источник (релизер): Max Monteiro
Наличие сканов в содержимом раздачи: нет
Треклист:
1. Délétère 3:16
2. Mantrax 6:19
3. The Slide Effect 7:58
4. Waves 2:42
5. #5 11:39
6. Miasme 6:45
7. Multiphonics 6:43
8. Gymkhana 8:00
Compositions collectives, sauf No. 5 : Christian Graf.
Enregistré en novembre 2001 au Studio Axis, Genève.
François Chevrolet – alto sax
Christian Graf – guitare, loops
Vincent Hänni – traitements
Hervé Provini – batterie
 
Лог создания рипа
Exact Audio Copy V1.0 beta 3 from 29. August 2011
EAC extraction logfile from 4. August 2013, 12:43
Double Jeu / Yellow Landscapes
Used drive : SlimtypeeNAU508 5 Adapter: 1 ID: 0
Read mode : Secure
Utilize accurate stream : Yes
Defeat audio cache : Yes
Make use of C2 pointers : No
Read offset correction : 6
Overread into Lead-In and Lead-Out : No
Fill up missing offset samples with silence : Yes
Delete leading and trailing silent blocks : No
Null samples used in CRC calculations : Yes
Used interface : Native Win32 interface for Win NT & 2000
Gap handling : Appended to previous track
Used output format : User Defined Encoder
Selected bitrate : 768 kBit/s
Quality : High
Add ID3 tag : No
Command line compressor : C:\Program Files (x86)\Exact Audio Copy\Flac\flac.exe
Additional command line options : -8 -V -T "ARTIST=%artist%" -T "TITLE=%title%" -T "ALBUM=%albumtitle%" -T "DATE=%year%" -T "TRACKNUMBER=%tracknr%" -T "GENRE=%genre%" -T "PERFORMER=%albuminterpret%" -T "COMPOSER=%composer%" %haslyrics%--tag-from-file=LYRICS="%lyricsfile%"%haslyrics% -T "ALBUMARTIST=%albumartist%" -T "DISCNUMBER=%cdnumber%" -T "TOTALDISCS=%totalcds%" -T "TOTALTRACKS=%numtracks%" -T "COMMENT=%comment%" %source% -o %dest%
TOC of the extracted CD
Track | Start | Length | Start sector | End sector
---------------------------------------------------------
1 | 0:00.00 | 3:16.09 | 0 | 14708
2 | 3:16.09 | 6:19.37 | 14709 | 43170
3 | 9:35.46 | 7:57.43 | 43171 | 78988
4 | 17:33.14 | 2:42.00 | 78989 | 91138
5 | 20:15.14 | 11:38.65 | 91139 | 143553
6 | 31:54.04 | 6:44.66 | 143554 | 173919
7 | 38:38.70 | 6:43.10 | 173920 | 204154
8 | 45:22.05 | 7:59.66 | 204155 | 240145
Track 1
Filename C:\EAC rips\01 - Délétère.wav
Pre-gap length 0:00:02.00
Peak level 100.0 %
Extraction speed 2.0 X
Track quality 100.0 %
Test CRC AE70C019
Copy CRC AE70C019
Track not present in AccurateRip database
Copy OK
Track 2
Filename C:\EAC rips\02 - Mantrax.wav
Peak level 100.0 %
Extraction speed 2.5 X
Track quality 100.0 %
Test CRC 85D9EA1D
Copy CRC 85D9EA1D
Track not present in AccurateRip database
Copy OK
Track 3
Filename C:\EAC rips\03 - The Slide Effect.wav
Peak level 100.0 %
Extraction speed 2.9 X
Track quality 100.0 %
Test CRC BC7A6963
Copy CRC BC7A6963
Track not present in AccurateRip database
Copy OK
Track 4
Filename C:\EAC rips\04 - Waves.wav
Peak level 76.3 %
Extraction speed 2.1 X
Track quality 99.9 %
Test CRC F5427EE9
Copy CRC F5427EE9
Track not present in AccurateRip database
Copy OK
Track 5
Filename C:\EAC rips\05 - #5.wav
Peak level 100.0 %
Extraction speed 3.3 X
Track quality 99.9 %
Test CRC 2BE767A2
Copy CRC 2BE767A2
Track not present in AccurateRip database
Copy OK
Track 6
Filename C:\EAC rips\06 - Miasme.wav
Peak level 100.0 %
Extraction speed 3.8 X
Track quality 100.0 %
Test CRC 1712462D
Copy CRC 1712462D
Track not present in AccurateRip database
Copy OK
Track 7
Filename C:\EAC rips\07 - Multiphonics.wav
Peak level 100.0 %
Extraction speed 4.0 X
Track quality 100.0 %
Test CRC 7C7E1C39
Copy CRC 7C7E1C39
Track not present in AccurateRip database
Copy OK
Track 8
Filename C:\EAC rips\08 - Gymkhana.wav
Pre-gap length 0:00:02.00
Peak level 100.0 %
Extraction speed 4.3 X
Track quality 100.0 %
Test CRC A9E3963F
Copy CRC A9E3963F
Track not present in AccurateRip database
Copy OK
None of the tracks are present in the AccurateRip database
No errors occurred
End of status report
---- CUETools DB Plugin V2.1.4
[CTDB TOCID: SPm43KVAVmgsIR0FwyzX02Zm6bg-] disk not present in database
Submit result: SPm43KVAVmgsIR0FwyzX02Zm6bg- has been uploaded
==== Log checksum EBAECA7AF4312CE2F26A124FCB2E3A7AFE6185223769E51746A8EA8A28988F52 ====
 
Содержание индексной карты (.CUE)
REM GENRE Jazz
REM DATE 2002
REM DISCID 640C8108
REM COMMENT "ExactAudioCopy v1.0b3"
PERFORMER "Double Jeu"
TITLE "Yellow Landscapes"
FILE "01 - Délétère.wav" WAVE
TRACK 01 AUDIO
TITLE "Délétère"
PERFORMER "Double Jeu"
INDEX 01 00:00:00
FILE "02 - Mantrax.wav" WAVE
TRACK 02 AUDIO
TITLE "Mantrax"
PERFORMER "Double Jeu"
INDEX 01 00:00:00
FILE "03 - The Slide Effect.wav" WAVE
TRACK 03 AUDIO
TITLE "The Slide Effect"
PERFORMER "Double Jeu"
INDEX 01 00:00:00
FILE "04 - Waves.wav" WAVE
TRACK 04 AUDIO
TITLE "Waves"
PERFORMER "Double Jeu"
INDEX 01 00:00:00
FILE "05 - #5.wav" WAVE
TRACK 05 AUDIO
TITLE "#5"
PERFORMER "Double Jeu"
INDEX 01 00:00:00
FILE "06 - Miasme.wav" WAVE
TRACK 06 AUDIO
TITLE "Miasme"
PERFORMER "Double Jeu"
INDEX 01 00:00:00
FILE "07 - Multiphonics.wav" WAVE
TRACK 07 AUDIO
TITLE "Multiphonics"
PERFORMER "Double Jeu"
INDEX 01 00:00:00
TRACK 08 AUDIO
TITLE "Gymkhana"
PERFORMER "Double Jeu"
INDEX 00 06:41:10
FILE "08 - Gymkhana.wav" WAVE
INDEX 01 00:00:00
Any questions -> support@pro-jazz.com. По всем вопросам пишите -> support@pro-jazz.com
17:31
185
Нет комментариев. Ваш будет первым!