Вы используете незарегистрированную версию компонента "Вкладки"!

Поиск

(British Jazz, Big Band, Contemporary Jazz) The Mike Westbrook Concert Band - Marching Song Vol. 1 & 2 - 1998 (1969), FLAC (tracks+.cue), lossless

(British Jazz, Big Band, Contemporary Jazz) The Mike Westbrook Concert Band - Marching Song Vol. 1 & 2 - 1998 (1969), FLAC (tracks+.cue), lossless
Треклист:
The Mike Westbrook Concert Band / Marching Song Vol. 1 & 2
Жанр: British Jazz, Big Band, Contemporary Jazz
Страна-производитель диска: U.K.
Год издания: 1998 (1969)
Издатель (лейбл): Deram
Номер по каталогу: 844 853-2
Аудиокодек: FLAC (*.flac)
Тип рипа: tracks+.cue
Битрейт аудио: lossless
Продолжительность: 48:15 + 57:03
Источник (релизер): Max Monteiro
Наличие сканов в содержимом раздачи: нет
Треклист:
Disc 1
01. Hooray! 6:24
02. Landscape 15:26
03. Waltz (for Joanna) 5:51
04. Landscape (II) 0:40
05. Other World 8:24
06. Marching Song 11:30
Disc 2
01. Transition 5:12
02. Home 7:35
03. Rosie 6:36
04. Prelude (Surman) 4:43
05. Tension (Surman) 4:34
06. Introduction 5:59
07. Ballad 2:27
08. Conflict 10:45
09. Requiem 0:53
10. Tarnished (Surman) 5:56
11. Memorial 2:22
All compositions by Mike Westbrook except where indicated.
 
Лог создания рипа
 
Disc 1
Exact Audio Copy V1.0 beta 3 from 29. August 2011
EAC extraction logfile from 31. July 2013, 9:10
The Mike Westbrook Concert Band / Marching Song Vol. 1
Used drive : SlimtypeeNAU508 5 Adapter: 1 ID: 0
Read mode : Secure
Utilize accurate stream : Yes
Defeat audio cache : Yes
Make use of C2 pointers : No
Read offset correction : 6
Overread into Lead-In and Lead-Out : No
Fill up missing offset samples with silence : Yes
Delete leading and trailing silent blocks : No
Null samples used in CRC calculations : Yes
Used interface : Native Win32 interface for Win NT & 2000
Gap handling : Appended to previous track
Used output format : User Defined Encoder
Selected bitrate : 768 kBit/s
Quality : High
Add ID3 tag : No
Command line compressor : C:\Program Files (x86)\Exact Audio Copy\Flac\flac.exe
Additional command line options : -8 -V -T "ARTIST=%artist%" -T "TITLE=%title%" -T "ALBUM=%albumtitle%" -T "DATE=%year%" -T "TRACKNUMBER=%tracknr%" -T "GENRE=%genre%" -T "PERFORMER=%albuminterpret%" -T "COMPOSER=%composer%" %haslyrics%--tag-from-file=LYRICS="%lyricsfile%"%haslyrics% -T "ALBUMARTIST=%albumartist%" -T "DISCNUMBER=%cdnumber%" -T "TOTALDISCS=%totalcds%" -T "TOTALTRACKS=%numtracks%" -T "COMMENT=%comment%" %source% -o %dest%
TOC of the extracted CD
Track | Start | Length | Start sector | End sector
---------------------------------------------------------
1 | 0:00.33 | 6:24.32 | 33 | 28864
2 | 6:24.65 | 15:26.03 | 28865 | 98317
3 | 21:50.68 | 5:50.65 | 98318 | 124632
4 | 27:41.58 | 0:39.62 | 124633 | 127619
5 | 28:21.45 | 8:23.45 | 127620 | 165389
6 | 36:45.15 | 11:30.30 | 165390 | 217169
Track 1
Filename C:\EAC rips\01 - Hooray!.wav
Pre-gap length 0:00:02.33
Peak level 92.2 %
Extraction speed 1.0 X
Track quality 99.9 %
Test CRC EF0A3CFA
Copy CRC EF0A3CFA
Track not present in AccurateRip database
Copy OK
Track 2
Filename C:\EAC rips\02 - Landscape.wav
Peak level 80.9 %
Extraction speed 1.5 X
Track quality 100.0 %
Test CRC FEC9FB85
Copy CRC FEC9FB85
Track not present in AccurateRip database
Copy OK
Track 3
Filename C:\EAC rips\03 - Waltz (for Joanna).wav
Peak level 96.3 %
Extraction speed 1.7 X
Track quality 100.0 %
Test CRC B5D18E97
Copy CRC B5D18E97
Track not present in AccurateRip database
Copy OK
Track 4
Filename C:\EAC rips\04 - Landscape (II).wav
Peak level 42.0 %
Extraction speed 0.6 X
Track quality 99.7 %
Test CRC 7714556E
Copy CRC 7714556E
Track not present in AccurateRip database
Copy OK
Track 5
Filename C:\EAC rips\05 - Other World.wav
Peak level 98.1 %
Extraction speed 1.9 X
Track quality 100.0 %
Test CRC 03230299
Copy CRC 03230299
Track not present in AccurateRip database
Copy OK
Track 6
Filename C:\EAC rips\06 - Marching Song.wav
Peak level 97.2 %
Extraction speed 2.0 X
Track quality 99.9 %
Test CRC D02ED9C4
Copy CRC D02ED9C4
Track not present in AccurateRip database
Copy OK
None of the tracks are present in the AccurateRip database
No errors occurred
End of status report
---- CUETools DB Plugin V2.1.4
[CTDB TOCID: ltp5XQ0mQ2UfeAWs74GNX9nx0Hw-] disk not present in database
Submit result: ltp5XQ0mQ2UfeAWs74GNX9nx0Hw- has been uploaded
==== Log checksum 867E4125FA2E5DE1375A28F40C24E1853CAEEE2DE25CD21434D98C0CFBB2E060 ====
 
Disc 2
Exact Audio Copy V1.0 beta 3 from 29. August 2011
EAC extraction logfile from 31. July 2013, 10:55
The Mike Westbrook Concert Band / Marching Song Vol. 2
Used drive : SlimtypeeNAU508 5 Adapter: 1 ID: 0
Read mode : Secure
Utilize accurate stream : Yes
Defeat audio cache : Yes
Make use of C2 pointers : No
Read offset correction : 6
Overread into Lead-In and Lead-Out : No
Fill up missing offset samples with silence : Yes
Delete leading and trailing silent blocks : No
Null samples used in CRC calculations : Yes
Used interface : Native Win32 interface for Win NT & 2000
Gap handling : Appended to previous track
Used output format : User Defined Encoder
Selected bitrate : 768 kBit/s
Quality : High
Add ID3 tag : No
Command line compressor : C:\Program Files (x86)\Exact Audio Copy\Flac\flac.exe
Additional command line options : -8 -V -T "ARTIST=%artist%" -T "TITLE=%title%" -T "ALBUM=%albumtitle%" -T "DATE=%year%" -T "TRACKNUMBER=%tracknr%" -T "GENRE=%genre%" -T "PERFORMER=%albuminterpret%" -T "COMPOSER=%composer%" %haslyrics%--tag-from-file=LYRICS="%lyricsfile%"%haslyrics% -T "ALBUMARTIST=%albumartist%" -T "DISCNUMBER=%cdnumber%" -T "TOTALDISCS=%totalcds%" -T "TOTALTRACKS=%numtracks%" -T "COMMENT=%comment%" %source% -o %dest%
TOC of the extracted CD
Track | Start | Length | Start sector | End sector
---------------------------------------------------------
1 | 0:00.33 | 5:12.27 | 33 | 23459
2 | 5:12.60 | 7:35.23 | 23460 | 57607
3 | 12:48.08 | 6:36.25 | 57608 | 87332
4 | 19:24.33 | 4:43.37 | 87333 | 108594
5 | 24:07.70 | 4:33.50 | 108595 | 129119
6 | 28:41.45 | 5:58.63 | 129120 | 156032
7 | 34:40.33 | 2:26.47 | 156033 | 167029
8 | 37:07.05 | 10:44.53 | 167030 | 215382
9 | 47:51.58 | 0:52.62 | 215383 | 219344
10 | 48:44.45 | 5:56.25 | 219345 | 246069
11 | 54:40.70 | 2:22.25 | 246070 | 256744
Track 1
Filename C:\EAC rips\01 - Transition.wav
Pre-gap length 0:00:02.33
Peak level 62.5 %
Extraction speed 1.1 X
Track quality 100.0 %
Test CRC 3CE41D2E
Copy CRC 3CE41D2E
Accurately ripped (confidence 1) [BA94A574] (AR v2)
Copy OK
Track 2
Filename C:\EAC rips\02 - Home.wav
Peak level 78.3 %
Extraction speed 1.3 X
Track quality 100.0 %
Test CRC F613BB8D
Copy CRC F613BB8D
Accurately ripped (confidence 1) [5DF3B817] (AR v2)
Copy OK
Track 3
Filename C:\EAC rips\03 - Rosie.wav
Peak level 59.4 %
Extraction speed 1.5 X
Track quality 100.0 %
Test CRC C2C7341A
Copy CRC C2C7341A
Accurately ripped (confidence 1) [FA2E22CB] (AR v2)
Copy OK
Track 4
Filename C:\EAC rips\04 - Prelude.wav
Peak level 59.7 %
Extraction speed 1.4 X
Track quality 99.9 %
Test CRC 0BF4BE80
Copy CRC 0BF4BE80
Accurately ripped (confidence 1) [B7EAF024] (AR v2)
Copy OK
Track 5
Filename C:\EAC rips\05 - Tension.wav
Pre-gap length 0:00:01.00
Peak level 82.0 %
Extraction speed 1.6 X
Track quality 100.0 %
Test CRC 0CF0D58E
Copy CRC 0CF0D58E
Accurately ripped (confidence 1) [F60942F5] (AR v2)
Copy OK
Track 6
Filename C:\EAC rips\06 - Introduction.wav
Peak level 77.5 %
Extraction speed 1.8 X
Track quality 100.0 %
Test CRC 4750FCE7
Copy CRC 4750FCE7
Accurately ripped (confidence 1) [148E793D] (AR v2)
Copy OK
Track 7
Filename C:\EAC rips\07 - Ballad.wav
Peak level 42.0 %
Extraction speed 1.6 X
Track quality 100.0 %
Test CRC C8C627AE
Copy CRC C8C627AE
Accurately ripped (confidence 1) [E2BFE93E] (AR v2)
Copy OK
Track 8
Filename C:\EAC rips\08 - Conflict.wav
Peak level 100.0 %
Extraction speed 2.0 X
Track quality 99.9 %
Test CRC 5170F270
Copy CRC 5170F270
Accurately ripped (confidence 1) [7E4DB8D7] (AR v2)
Copy OK
Track 9
Filename C:\EAC rips\09 - Requiem.wav
Peak level 100.0 %
Extraction speed 1.3 X
Track quality 100.0 %
Test CRC EA4B84D9
Copy CRC EA4B84D9
Accurately ripped (confidence 1) [F91A5151] (AR v2)
Copy OK
Track 10
Filename C:\EAC rips\10 - Tarnished.wav
Pre-gap length 0:00:00.62
Peak level 57.8 %
Extraction speed 2.2 X
Track quality 100.0 %
Test CRC FE45AB87
Copy CRC FE45AB87
Accurately ripped (confidence 1) [B2997E41] (AR v2)
Copy OK
Track 11
Filename C:\EAC rips\11 - Memorial.wav
Peak level 75.2 %
Extraction speed 1.9 X
Track quality 100.0 %
Test CRC 728361EE
Copy CRC 728361EE
Accurately ripped (confidence 1) [C70B5A62] (AR v2)
Copy OK
All tracks accurately ripped
No errors occurred
End of status report
---- CUETools DB Plugin V2.1.4
[CTDB TOCID: Wc.5kIye0C1OirDcpwxsXiNqRUw-] disk not present in database
Submit result: Wc.5kIye0C1OirDcpwxsXiNqRUw- has been uploaded
==== Log checksum F03ADEE6259DA4A53252C76F50E71EE49A3BE068BD839EA84CCDD2E192B37C50 ====
 
Содержание индексной карты (.CUE)
 
Disc 1
REM GENRE Jazz
REM DATE 1969
REM DISCID 400B4F06
REM COMMENT "ExactAudioCopy v1.0b3"
CATALOG 0042284485128
PERFORMER "The Mike Westbrook Concert Band"
TITLE "Marching Song Vol. 1"
FILE "01 - Hooray!.wav" WAVE
TRACK 01 AUDIO
TITLE "Hooray!"
PERFORMER "The Mike Westbrook Concert Band"
ISRC GBF076922360
PREGAP 00:00:33
INDEX 01 00:00:00
FILE "02 - Landscape.wav" WAVE
TRACK 02 AUDIO
TITLE "Landscape"
PERFORMER "The Mike Westbrook Concert Band"
ISRC GBF076922370
INDEX 01 00:00:00
FILE "03 - Waltz (for Joanna).wav" WAVE
TRACK 03 AUDIO
TITLE "Waltz (for Joanna)"
PERFORMER "The Mike Westbrook Concert Band"
ISRC GBF076922380
INDEX 01 00:00:00
FILE "04 - Landscape (II).wav" WAVE
TRACK 04 AUDIO
TITLE "Landscape (II)"
PERFORMER "The Mike Westbrook Concert Band"
ISRC GBF076922390
INDEX 01 00:00:00
FILE "05 - Other World.wav" WAVE
TRACK 05 AUDIO
TITLE "Other World"
PERFORMER "The Mike Westbrook Concert Band"
ISRC GBF076922400
INDEX 01 00:00:00
FILE "06 - Marching Song.wav" WAVE
TRACK 06 AUDIO
TITLE "Marching Song"
PERFORMER "The Mike Westbrook Concert Band"
ISRC GBF076922410
INDEX 01 00:00:00
 
Disc 2
REM GENRE Jazz
REM DATE 1969
REM DISCID 960D5F0B
REM COMMENT "ExactAudioCopy v1.0b3"
CATALOG 0042284485524
PERFORMER "The Mike Westbrook Concert Band"
TITLE "Marching Song Vol. 2"
FILE "01 - Transition.wav" WAVE
TRACK 01 AUDIO
TITLE "Transition"
PERFORMER "The Mike Westbrook Concert Band"
ISRC GBF076922420
PREGAP 00:00:33
INDEX 01 00:00:00
FILE "02 - Home.wav" WAVE
TRACK 02 AUDIO
TITLE "Home"
PERFORMER "The Mike Westbrook Concert Band"
ISRC GBF076922430
INDEX 01 00:00:00
FILE "03 - Rosie.wav" WAVE
TRACK 03 AUDIO
TITLE "Rosie"
PERFORMER "The Mike Westbrook Concert Band"
ISRC GBF076922440
INDEX 01 00:00:00
FILE "04 - Prelude.wav" WAVE
TRACK 04 AUDIO
TITLE "Prelude"
PERFORMER "The Mike Westbrook Concert Band"
ISRC GBF076922450
INDEX 01 00:00:00
TRACK 05 AUDIO
TITLE "Tension"
PERFORMER "The Mike Westbrook Concert Band"
ISRC GBF079622460
INDEX 00 04:42:37
FILE "05 - Tension.wav" WAVE
INDEX 01 00:00:00
FILE "06 - Introduction.wav" WAVE
TRACK 06 AUDIO
TITLE "Introduction"
PERFORMER "The Mike Westbrook Concert Band"
ISRC GBF076922511
INDEX 01 00:00:00
FILE "07 - Ballad.wav" WAVE
TRACK 07 AUDIO
TITLE "Ballad"
PERFORMER "The Mike Westbrook Concert Band"
ISRC GBF076922470
INDEX 01 00:00:00
FILE "08 - Conflict.wav" WAVE
TRACK 08 AUDIO
TITLE "Conflict"
PERFORMER "The Mike Westbrook Concert Band"
ISRC GBF076922480
INDEX 01 00:00:00
FILE "09 - Requiem.wav" WAVE
TRACK 09 AUDIO
TITLE "Requiem"
PERFORMER "The Mike Westbrook Concert Band"
ISRC GBF076922490
INDEX 01 00:00:00
TRACK 10 AUDIO
TITLE "Tarnished"
PERFORMER "The Mike Westbrook Concert Band"
ISRC GBF076922500
INDEX 00 00:52:00
FILE "10 - Tarnished.wav" WAVE
INDEX 01 00:00:00
FILE "11 - Memorial.wav" WAVE
TRACK 11 AUDIO
TITLE "Memorial"
PERFORMER "The Mike Westbrook Concert Band"
ISRC GBF076922510
INDEX 01 00:00:00
 
Состав
Mike Westbrook – Piano
Dave Holdsworh – Trumpet, Fluegelhorn
Kenny Wheeler – Trumpet, Fluegelhorn
Greg Bowen – Trumpet
Tony Fisher – Trumpet
Henry Lowther – Trumpet
Ronnie Hughes – Trumpet
Malcolm Grifiths – Trombone
Paul Rutherford – Trombone
Mike Gibbs – Trombone
Eddie Harvey – Trombone
Tom Bennellick – French Horn
Martin Fry – Tuba
George Smith – Tuba
John Surman – Baritone, Soprano Saxes
Mike Osborne – Alto Sax, Clarinet
Bernie Living – Alto Sax, Clarinet
Alan Skidmore – Tenor Sax, Flute
Nisar Ahmad Khan – Tenor Sax
John Warren – Alto, Baritone Saxes, Flute
Brian Smith – Tenor Sax
Harry Miller – Bass
Barre Phillips – Bass
Chris Lawrence – Bass
Alan Jackson – Drums
John Marshall – Drums
Disc 1
01. Hooray!
trumpet solo: Dave Holdsworth
alto solo: Mike Osborne
crowd sounds: Bill Price
02. Landscape
flute solo: Bernie Living
bass duet: Harry Miller, Barre Phillips
sax duet: John Surman, Mike Osborne
03. Waltz (for Joanna)
soprano solo: John Surman
04. Landscape (II)
05. Other World
trombone solo: Paul Rutherford
06. Marching Song
tenor saxes: Nisar Ahmad Khan, Alan Skidmore
Disc 2
01. Transition
02. Home
trombone solo: Malcolm Griffiths
bass duet: Harry Miller, Chris Lawrence
3. Rosie
trumpet solo: Dave Holdsworth
04. Prelude (Surman)
woodwind: Bernie Living, Mike Osborne, Alan Skidmore
05. Tension (Surman)
saxophone duet: John Surman, Alan Skidmore
trombone solo: Malcolm Griffiths
06. Introduction
07. Ballad
alto solo: Mike Osborne
08. Conflict
tuba solo: George Smith
09. Requiem
10. Tarnished (Surman)
soprano solo: John Surman
alto solo: Mike Osborne
11. Memorial
drums solo: Alan Jackson
По всем вопросам пишите личное сообщение пользователю M0p94ok.
17:31
159
Нет комментариев. Ваш будет первым!