Вы используете незарегистрированную версию компонента "Вкладки"!

Поиск

(Free Improvisation) Masayuki Takayanagi New Direction Unit - April Is the Cruellest Month - 2007 (1975), FLAC (tracks+.cue), lossless

(Free Improvisation) Masayuki Takayanagi New Direction Unit - April Is the Cruellest Month - 2007 (1975), FLAC (tracks+.cue), lossless
Треклист:
Masayuki Takayanagi New Direction Unit - April Is the Cruellest Month
Жанр: Free Improvisation
Год выпуска диска: 2007 (1975)
Производитель диска: Jinya Disc (B-12)
Источник: вот.сиди (dashdash1)
Аудио кодек: FLAC
Тип рипа: tracks+.cue
Битрейт аудио: lossless
Продолжительность: 47:16
Трэклист:
1. We Have Existed (10:21)
2. What Have We Given? (6:43)
3. My Friend, Blood Shaking My Heart (19:43)
4. We Have Existed [alternate take] (10:06)
All music by Masayuki Takayanagi
Recorded by Kunio Arai at Yamaha Music Foundation Studio, April 30 and May 11, 1975
Masayuki Takayanagi New Direction Unit
Masayuki Takayanagi: guitar
Kenji Mori: alto saxophone, flute, bass clarinet
Nobuyoshi Ino: bass, cello
Hiroshi Yamazaki: percussion
 
Лог создания рипа
Exact Audio Copy V1.0 beta 2 from 29. April 2011
EAC extraction logfile from 21. September 2011, 22:22
Masayuki Takayanagi New Direction Unit / April is the cruellest month
Used drive : TSSTcorpCDDVDW TS-L633C Adapter: 0 ID: 1
Read mode : Secure
Utilize accurate stream : Yes
Defeat audio cache : Yes
Make use of C2 pointers : No
Read offset correction : 6
Overread into Lead-In and Lead-Out : No
Fill up missing offset samples with silence : Yes
Delete leading and trailing silent blocks : No
Null samples used in CRC calculations : Yes
Used interface : Native Win32 interface for Win NT & 2000
Gap handling : Appended to previous track
Used output format : User Defined Encoder
Selected bitrate : 128 kBit/s
Quality : High
Add ID3 tag : No
Command line compressor : C:\Program Files (x86)\Exact Audio Copy\Flac\flac.exe
Additional command line options : -8 -V -T "ARTIST=%artist%" -T "TITLE=%title%" -T "ALBUM=%albumtitle%" -T "DATE=%year%" -T "TRACKNUMBER=%tracknr%" -T "GENRE=%genre%" -T "PERFORMER=%albuminterpret%" -T "COMPOSER=%composer%" %haslyrics%--tag-from-file=LYRICS
TOC of the extracted CD
Track | Start | Length | Start sector | End sector
---------------------------------------------------------
1 | 0:00.00 | 10:26.65 | 0 | 47014
2 | 10:26.65 | 6:48.73 | 47015 | 77687
3 | 17:15.63 | 19:48.28 | 77688 | 166815
4 | 37:04.16 | 10:11.52 | 166816 | 212692
Track 1
Filename C:\EAC rips\01 - We have existed.wav
Pre-gap length 0:00:02.00
Peak level 93.9 %
Extraction speed 1.4 X
Track quality 100.0 %
Test CRC C72D96FA
Copy CRC C72D96FA
Accurately ripped (confidence 2) [C53160C7] (AR v1)
Copy OK
Track 2
Filename C:\EAC rips\02 - What have we given.wav
Peak level 100.0 %
Extraction speed 1.6 X
Track quality 100.0 %
Test CRC AF4E7C0A
Copy CRC AF4E7C0A
Accurately ripped (confidence 2) [16C46BD4] (AR v1)
Copy OK
Track 3
Filename C:\EAC rips\03 - My friend, blood shaking my heart.wav
Peak level 100.0 %
Extraction speed 2.0 X
Track quality 100.0 %
Test CRC E38893AD
Copy CRC E38893AD
Accurately ripped (confidence 2) [86F453CF] (AR v1)
Copy OK
Track 4
Filename C:\EAC rips\04 - We have existed (Alternate Take).wav
Peak level 100.0 %
Extraction speed 2.3 X
Track quality 100.0 %
Test CRC B782DB22
Copy CRC B782DB22
Accurately ripped (confidence 2) [DBBC186C] (AR v1)
Copy OK
All tracks accurately ripped
No errors occurred
End of status report
==== Log checksum D130CD1508CFB40BC9C144A71491980D4B95511F3ACEC15B6AE050DF70687704 ====
 
Содержание индексной карты (.CUE)
REM GENRE "Free Improvisation"
REM DATE 2007
REM DISCID 290B1304
REM COMMENT "ExactAudioCopy v1.0b2"
FILE "01 - We have existed.wav" WAVE
TRACK 01 AUDIO
FLAGS DCP
INDEX 01 00:00:00
FILE "02 - What have we given.wav" WAVE
TRACK 02 AUDIO
FLAGS DCP
INDEX 01 00:00:00
FILE "03 - My friend, blood shaking my heart.wav" WAVE
TRACK 03 AUDIO
FLAGS DCP
INDEX 01 00:00:00
FILE "04 - We have existed (Alternate Take).wav" WAVE
TRACK 04 AUDIO
FLAGS DCP
INDEX 01 00:00:00
 
Лог проверки качества
AUDIOCHECKER v2.0 beta (build 457) - by Dester - opdester@freemail.hu
~~~~~~~~~~~~~~~~~~~~~~~~~~~~~~~~~~
-=== DO NOT EDIT THIS FILE! ===-
Path: ...\Masayuki Takayanagi New Direction Unit - April is the cruellest month (2007) [FLAC] {B-0012}
1 -=- 01 - We have existed.flac -=- CDDA (99%)
2 -=- 02 - What have we given.flac -=- CDDA (100%)
3 -=- 03 - My friend, blood shaking my heart.flac -=- CDDA (100%)
4 -=- 04 - We have existed (Alternate Take).flac -=- CDDA (100%)
Summary 99,75% CDDA
246277380
Any questions -> support@pro-jazz.com. По всем вопросам пишите -> support@pro-jazz.com
22:04
161
Нет комментариев. Ваш будет первым!