Вы используете незарегистрированную версию компонента "Вкладки"!

Поиск

(Free Improvisation) Francois Houle \ Evan Parker \ Benoit Delbecq - La Lumiere de Pierres - 2007, FLAC (tracks), lossless

(Free Improvisation) Francois Houle \ Evan Parker \ Benoit Delbecq - La Lumiere de Pierres - 2007, FLAC (tracks), lossless
Треклист:
François Houle \ Evan Parker \ Benoît Delbecq - La Lumière de Pierres
Жанр: Free Improvisation
Год выпуска диска: 2007
Производитель диска: psi (psi 07.02)
Аудио кодек: FLAC
Тип рипа: tracks
Битрейт аудио: lossless
Продолжительность: 45:55
Трэклист:
01. Stone Through Sunlight
02. Moonlight Through Stone
03. Stone On Stone
François Houle: clarinets
Evan Parker: tenor saxophone
Benoît Delbecq: prepared piano
Доп. информация: Перераздача. Спасибо ivan_buratino
 
Отчёт EAC
Exact Audio Copy V0.99 prebeta 4 from 23. January 2008
EAC extraction logfile from 26. July 2008, 10:42
Houle, Parker, Delbecq / La Lumiere de Pierres
Used drive : PIONEER DVD-RW DVR-109 Adapter: 1 ID: 0
Read mode : Secure
Utilize accurate stream : Yes
Defeat audio cache : Yes
Make use of C2 pointers : No
Read offset correction : 48
Overread into Lead-In and Lead-Out : No
Fill up missing offset samples with silence : Yes
Delete leading and trailing silent blocks : No
Null samples used in CRC calculations : Yes
Used interface : Native Win32 interface for Win NT & 2000
Gap handling : Appended to previous track
Used output format : User Defined Encoder
Selected bitrate : 128 kBit/s
Quality : High
Add ID3 tag : No
Command line compressor : C:\Program Files\Exact Audio Copy\Flac\flac.exe
Additional command line options : -V -8 -T "artist=%a" -T "title=%t" -T "album=%g" -T "date=%y" -T "tracknumber=%n" -T "genre=%m" %s
TOC of the extracted CD
Track | Start | Length | Start sector | End sector
---------------------------------------------------------
1 | 0:00.00 | 18:08.18 | 0 | 81617
2 | 18:08.18 | 16:47.01 | 81618 | 157143
3 | 34:55.19 | 11:00.12 | 157144 | 206655
Track 1
Filename D:\Torrent\Houle, Parker, Delbecq - La Lumiere de Pierres (2007) [FLAC]\01 - Stone Through Sunlight.wav
Pre-gap length 0:00:02.00
Peak level 99.5 %
Track quality 100.0 %
Test CRC 1C6F2A2D
Copy CRC 1C6F2A2D
Track not present in AccurateRip database
Copy OK
Track 2
Filename D:\Torrent\Houle, Parker, Delbecq - La Lumiere de Pierres (2007) [FLAC]\02 - Moonlight Through Stone.wav
Peak level 99.5 %
Track quality 100.0 %
Test CRC 43D641BA
Copy CRC 43D641BA
Track not present in AccurateRip database
Copy OK
Track 3
Filename D:\Torrent\Houle, Parker, Delbecq - La Lumiere de Pierres (2007) [FLAC]\03 - Stone On Stone.wav
Peak level 99.4 %
Track quality 99.9 %
Test CRC 86C51038
Copy CRC 86C51038
Track not present in AccurateRip database
Copy OK
None of the tracks are present in the AccurateRip database
No errors occurred
End of status report
Any questions -> support@pro-jazz.com. По всем вопросам пишите -> support@pro-jazz.com
22:03
260
Нет комментариев. Ваш будет первым!