Вы используете незарегистрированную версию компонента "Вкладки"!

Поиск

(Free Jazz) New Direction For The Arts (Masayuki Takayanagi, Kenji Mori, Hiroshi Yamazaki, Joe Mizuki, Toshio Sato) - Free Form Suite - 1998 (1972), FLAC (tracks+.cue), lossless

(Free Jazz) New Direction For The Arts (Masayuki Takayanagi, Kenji Mori, Hiroshi Yamazaki, Joe Mizuki, Toshio Sato) - Free Form Suite - 1998 (1972), FLAC (tracks+.cue), lossless
Треклист:
New Direction For The Arts - Free Form Suite
Жанр: Free Jazz
Год выпуска диска: 1998 (1972)
Производитель диска: Three Blind Mice (TBM-10)
Источник: вот.сиди (dashdash1)
Аудио кодек: FLAC
Тип рипа: tracks+.cue
Битрейт аудио: lossless
Продолжительность: 49:22
Треклист:
1. The Blues 6:07
2. You Don't Know What Love Is 9:47
3. Sun In The East 9:58 Free Form Suite
4. 1st Movement 6:46
5. 2nd Movement 6:35
6. 3rd Movement 9:47
all compositions by Masayuki Takayanagi except (2) by Don Raye , Gene De Paul
Recorded live at Aoi Studio, Tokyo on 19 May 1972
高柳昌行 (Masayuki Takayanagi) guitars
森剣治 (Kenji Mori) clarinet, flute, soprano & alto saxophones, piccolo flute, recorder
山崎比呂志 (Hiroshi Yamazaki), ジョー・水木 (Joe Mizuki) drums, percussion
佐藤敏夫 (Toshio Sato) time conductor (tracks: 4, 5, 6)
 
Лог создания рипа
Exact Audio Copy V1.0 beta 3 from 29. August 2011
EAC extraction logfile from 4. February 2012, 18:33
Masayuki "Jojo" Takayanagi & New Direction For The Arts / Free Form Suite
Used drive : Optiarc DVD RW AD-7585H Adapter: 0 ID: 1
Read mode : Secure
Utilize accurate stream : Yes
Defeat audio cache : Yes
Make use of C2 pointers : No
Read offset correction : 6
Overread into Lead-In and Lead-Out : No
Fill up missing offset samples with silence : Yes
Delete leading and trailing silent blocks : No
Null samples used in CRC calculations : Yes
Used interface : Native Win32 interface for Win NT & 2000
Gap handling : Appended to previous track
Used output format : User Defined Encoder
Selected bitrate : 128 kBit/s
Quality : High
Add ID3 tag : No
Command line compressor : C:\Program Files (x86)\Exact Audio Copy\Flac\flac.exe
Additional command line options : -8 -V -T "ARTIST=%artist%" -T "TITLE=%title%" -T "ALBUM=%albumtitle%" -T "DATE=%year%" -T "TRACKNUMBER=%tracknr%" -T "GENRE=%genre%" -T "PERFORMER=%albuminterpret%" -T "COMPOSER=%composer%" %haslyrics%--tag-from-file=LYRICS="%lyricsfile%"%haslyrics% -T "ALBUMARTIST=%albumartist%" -T "DISCNUMBER=%cdnumber%" -T "TOTALDISCS=%totalcds%" -T "TOTALTRACKS=%numtracks%" -T "COMMENT=EAC V1.0 beta 3, Secure Mode, Test & Copy, AccurateRip, FLAC -8" %source% -o %dest%
TOC of the extracted CD
Track | Start | Length | Start sector | End sector
---------------------------------------------------------
1 | 0:00.37 | 6:11.12 | 37 | 27873
2 | 6:11.49 | 9:51.18 | 27874 | 72216
3 | 16:02.67 | 10:03.50 | 72217 | 117491
4 | 26:06.42 | 6:50.22 | 117492 | 148263
5 | 32:56.64 | 6:39.28 | 148264 | 178216
6 | 39:36.17 | 9:46.25 | 178217 | 222191
Track 1
Filename C:\EAC Rips\01 - The Blues.wav
Pre-gap length 0:00:02.49
Peak level 100.0 %
Extraction speed 1.5 X
Track quality 99.9 %
Test CRC DA235A0C
Copy CRC DA235A0C
Accurately ripped (confidence 1) [BDD7F302] (AR v2)
Copy OK
Track 2
Filename C:\EAC Rips\02 - You Don't Know What Love Is.wav
Pre-gap length 0:00:03.65
Peak level 100.0 %
Extraction speed 2.3 X
Track quality 100.0 %
Test CRC B5B654E2
Copy CRC B5B654E2
Accurately ripped (confidence 1) [6459291E] (AR v2)
Copy OK
Track 3
Filename C:\EAC Rips\03 - Sun In The East.wav
Pre-gap length 0:00:03.72
Peak level 100.0 %
Extraction speed 2.7 X
Track quality 100.0 %
Test CRC 73F0CA85
Copy CRC 73F0CA85
Accurately ripped (confidence 1) [296F253B] (AR v2)
Copy OK
Track 4
Filename C:\EAC Rips\04 - Free Form Suite- 1st Movement.wav
Pre-gap length 0:00:05.29
Peak level 100.0 %
Extraction speed 2.9 X
Track quality 100.0 %
Test CRC D64D4EF4
Copy CRC D64D4EF4
Accurately ripped (confidence 1) [A87ED409] (AR v2)
Copy OK
Track 5
Filename C:\EAC Rips\05 - Free Form Suite- 2nd Movement.wav
Pre-gap length 0:00:04.45
Peak level 100.0 %
Extraction speed 2.5 X
Track quality 99.9 %
Test CRC B81DD22F
Copy CRC B81DD22F
Accurately ripped (confidence 1) [04B7E353] (AR v2)
Copy OK
Track 6
Filename C:\EAC Rips\06 - Free Form Suite- 3rd Movement.wav
Pre-gap length 0:00:04.56
Peak level 100.0 %
Extraction speed 3.0 X
Track quality 99.9 %
Test CRC 96263BCC
Copy CRC 96263BCC
Accurately ripped (confidence 1) [54E14261] (AR v2)
Copy OK
All tracks accurately ripped
No errors occurred
End of status report
==== Log checksum 14F2CB2258CF407F4437DBC82BC75A365EE4754D858FB71E33C1B6C5CB57DB90 ====
 
Содержание индексной карты (.CUE)
REM GENRE Jazz
REM DATE 1998
REM DISCID 630B9206
REM COMMENT "ExactAudioCopy v1.0b3"
FILE "01 - The Blues.wav" WAVE
TRACK 01 AUDIO
PREGAP 00:00:37
INDEX 01 00:00:00
TRACK 02 AUDIO
INDEX 00 06:07:38
FILE "02 - You Don't Know What Love Is.wav" WAVE
INDEX 01 00:00:00
TRACK 03 AUDIO
INDEX 00 09:47:39
FILE "03 - Sun In The East.wav" WAVE
INDEX 01 00:00:00
TRACK 04 AUDIO
INDEX 00 09:58:28
FILE "04 - Free Form Suite- 1st Movement.wav" WAVE
INDEX 01 00:00:00
TRACK 05 AUDIO
INDEX 00 06:45:63
FILE "05 - Free Form Suite- 2nd Movement.wav" WAVE
INDEX 01 00:00:00
TRACK 06 AUDIO
INDEX 00 06:34:61
FILE "06 - Free Form Suite- 3rd Movement.wav" WAVE
INDEX 01 00:00:00
 
Лог проверки качества
AUDIOCHECKER v2.0 beta (build 457) - by Dester - opdester@freemail.hu
~~~~~~~~~~~~~~~~~~~~~~~~~~~~~~~~~~
-=== DO NOT EDIT THIS FILE! ===-
Path: ...\free form suite
1 -=- 01 - The Blues.flac -=- CDDA (100%)
2 -=- 02 - You Don't Know What Love Is.flac -=- CDDA (100%)
3 -=- 03 - Sun In The East.flac -=- CDDA (100%)
4 -=- 04 - Free Form Suite- 1st Movement.flac -=- CDDA (100%)
5 -=- 05 - Free Form Suite- 2nd Movement.flac -=- CDDA (100%)
6 -=- 06 - Free Form Suite- 3rd Movement.flac -=- CDDA (100%)
Summary 100,00% CDDA
80411828
Any questions -> support@pro-jazz.com. По всем вопросам пишите -> support@pro-jazz.com
22:05
181
Нет комментариев. Ваш будет первым!