Вы используете незарегистрированную версию компонента "Вкладки"!

Поиск

(Free Improvisation) Masayuki Takayanagi - Archive I (5CD) - 2009, FLAC (tracks+.cue), lossless

Треклист:
Masayuki Takayanagi - Archive I (5CD)
Жанр: Free Improvisation
Год выпуска диска: 2009
Производитель диска: Japan
Аудио кодек: FLAC
Тип рипа: tracks+.cue
Битрейт аудио: lossless
Продолжительность: 1:15:48
Трэклист:
01 - Improvisation 1 (23:52)
02 - Improvisation 2 (16:52)
03 - Improvisation 3 (15:35)
04 - Improvisation 4 (19:07)
05 - applause (0:22)
Доп. информация: New Direction Unit
Masayuki Takayanagi: gut guitar (2, 3), electric guitar (1, 4)
Yoshiaki Fujikawa: flute (3), clarinet (2), alto saxophone (4), soprano saxophone (1)
Hiroshi Yamazaki: percussion (2-4)
Akira Ijima: gut guitar (2, 3), electric guitar (1, 4)
Recorded live at Another Situation first concert, Pulcinella, Shibuya, Tokyo, September 4, 1977
 
Отчёт EAC CD1
Exact Audio Copy V0.99 prebeta 5 from 4. May 2009
EAC extraction logfile from 12. July 2009, 13:09
New Direction Unit / Another Situation First Concert
Used drive : HL-DT-STDVDRAM GSA-4167B Adapter: 0 ID: 0
Read mode : Secure
Utilize accurate stream : Yes
Defeat audio cache : Yes
Make use of C2 pointers : No
Read offset correction : 667
Overread into Lead-In and Lead-Out : No
Fill up missing offset samples with silence : Yes
Delete leading and trailing silent blocks : No
Null samples used in CRC calculations : Yes
Used interface : Installed external ASPI interface
Gap handling : Appended to previous track
Used output format : User Defined Encoder
Selected bitrate : 768 kBit/s
Quality : High
Add ID3 tag : No
Command line compressor : C:\Program Files\Exact Audio Copy\FLAC\FLAC.EXE
Additional command line options : -V -8 -T "artist=%a" -T "title=%t" -T "album=%g" -T "date=%y" -T "tracknumber=%n" -T "genre=%m" %s
TOC of the extracted CD
Track | Start | Length | Start sector | End sector
---------------------------------------------------------
1 | 0:00.00 | 23:52.32 | 0 | 107431
2 | 23:52.32 | 16:51.73 | 107432 | 183329
3 | 40:44.30 | 15:34.47 | 183330 | 253426
4 | 56:19.02 | 19:07.36 | 253427 | 339487
5 | 75:26.38 | 0:21.39 | 339488 | 341101
Track 1
Filename N:\EAC\Masayuki Takayanagi Archive I\B-14\01 - New Direction Unit - Improvisation 1.wav
Pre-gap length 0:00:02.00
Peak level 98.9 %
Track quality 100.0 %
Test CRC DB5BE535
Copy CRC DB5BE535
Track not present in AccurateRip database
Copy OK
Track 2
Filename N:\EAC\Masayuki Takayanagi Archive I\B-14\02 - New Direction Unit - Improvisation 2.wav
Pre-gap length 0:00:07.26
Peak level 93.2 %
Track quality 100.0 %
Test CRC 7DBDE19C
Copy CRC 7DBDE19C
Track not present in AccurateRip database
Copy OK
Track 3
Filename N:\EAC\Masayuki Takayanagi Archive I\B-14\03 - New Direction Unit - Improvisation 3.wav
Pre-gap length 0:00:05.40
Peak level 96.9 %
Track quality 100.0 %
Test CRC 0B4FA988
Copy CRC 0B4FA988
Track not present in AccurateRip database
Copy OK
Track 4
Filename N:\EAC\Masayuki Takayanagi Archive I\B-14\04 - New Direction Unit - Improvisation 4.wav
Pre-gap length 0:00:05.50
Peak level 97.4 %
Track quality 100.0 %
Test CRC 4E8AB79B
Copy CRC 4E8AB79B
Track not present in AccurateRip database
Copy OK
Track 5
Filename N:\EAC\Masayuki Takayanagi Archive I\B-14\05 - New Direction Unit - applause.wav
Pre-gap length 0:00:07.07
Peak level 34.2 %
Track quality 100.0 %
Test CRC 3A0ECB1E
Copy CRC 3A0ECB1E
Track not present in AccurateRip database
Copy OK
None of the tracks are present in the AccurateRip database
No errors occurred
End of status report
Продолжительность: 1:18:01
Трэклист:
01 - Improvisation 1 (16:19)
02 - Improvisation 2 (13:16)
03 - Improvisation 3 (9:31)
04 - Improvisation 4 (14:13)
05 - Improvisation 5 - Mass Projection (23:53)
06 - applause (0:49)
Доп. информация
Masayuki Takayanagi: gut guitar (1), electric guitar (2, 4, 5)
Yoshiaki Fujikawa: flute (1), clarinet (4), alto saxophone (3, 5), soprano saxophone (2)
Akira Ijima: gut guitar (1), electric guitar (2, 4, 5)
Recorded live at New Direction Unit Regular Concert No. 35, Jean Jean, Shibuya, Tokyo, June 2, 1977
 
Отчёт EAC CD2
Exact Audio Copy V0.99 prebeta 5 from 4. May 2009
EAC extraction logfile from 12. July 2009, 13:38
New Direction Unit / Regular Concert No.35
Used drive : HL-DT-STDVDRAM GSA-4167B Adapter: 0 ID: 0
Read mode : Secure
Utilize accurate stream : Yes
Defeat audio cache : Yes
Make use of C2 pointers : No
Read offset correction : 667
Overread into Lead-In and Lead-Out : No
Fill up missing offset samples with silence : Yes
Delete leading and trailing silent blocks : No
Null samples used in CRC calculations : Yes
Used interface : Installed external ASPI interface
Gap handling : Appended to previous track
Used output format : User Defined Encoder
Selected bitrate : 768 kBit/s
Quality : High
Add ID3 tag : No
Command line compressor : C:\Program Files\Exact Audio Copy\FLAC\FLAC.EXE
Additional command line options : -V -8 -T "artist=%a" -T "title=%t" -T "album=%g" -T "date=%y" -T "tracknumber=%n" -T "genre=%m" %s
TOC of the extracted CD
Track | Start | Length | Start sector | End sector
---------------------------------------------------------
1 | 0:00.00 | 16:19.13 | 0 | 73437
2 | 16:19.13 | 13:16.23 | 73438 | 133160
3 | 29:35.36 | 9:31.01 | 133161 | 175986
4 | 39:06.37 | 14:12.73 | 175987 | 239959
5 | 53:19.35 | 23:53.30 | 239960 | 347464
6 | 77:12.65 | 0:48.40 | 347465 | 351104
Track 1
Filename N:\EAC\Masayuki Takayanagi Archive I\B-15\01 - New Direction Unit - Improvisation 1.wav
Pre-gap length 0:00:02.00
Peak level 100.0 %
Track quality 100.0 %
Test CRC 34E0948B
Copy CRC 34E0948B
Track not present in AccurateRip database
Copy OK
Track 2
Filename N:\EAC\Masayuki Takayanagi Archive I\B-15\02 - New Direction Unit - Improvisation 2.wav
Pre-gap length 0:00:07.18
Peak level 97.1 %
Track quality 100.0 %
Test CRC 2A0CDC4F
Copy CRC 2A0CDC4F
Track not present in AccurateRip database
Copy OK
Track 3
Filename N:\EAC\Masayuki Takayanagi Archive I\B-15\03 - New Direction Unit - Improvisation 3.wav
Pre-gap length 0:00:05.44
Peak level 79.6 %
Track quality 100.0 %
Test CRC DC7EB23E
Copy CRC DC7EB23E
Track not present in AccurateRip database
Copy OK
Track 4
Filename N:\EAC\Masayuki Takayanagi Archive I\B-15\04 - New Direction Unit - Improvisation 4.wav
Pre-gap length 0:00:08.38
Peak level 97.3 %
Track quality 100.0 %
Test CRC F0AA372C
Copy CRC F0AA372C
Track not present in AccurateRip database
Copy OK
Track 5
Filename N:\EAC\Masayuki Takayanagi Archive I\B-15\05 - New Direction Unit - Improvisation 5 - Mass Projection.wav
Pre-gap length 0:00:05.38
Peak level 95.9 %
Track quality 100.0 %
Test CRC CBB0A016
Copy CRC CBB0A016
Track not present in AccurateRip database
Copy OK
Track 6
Filename N:\EAC\Masayuki Takayanagi Archive I\B-15\06 - New Direction Unit - applause.wav
Pre-gap length 0:00:07.16
Peak level 53.9 %
Track quality 99.7 %
Test CRC 9C91F9E4
Copy CRC 9C91F9E4
Track not present in AccurateRip database
Copy OK
None of the tracks are present in the AccurateRip database
No errors occurred
End of status report
Продолжительность: 1:16:10
Трэклист:
01 - Improvisation 1 (13:47)
02 - Improvisation 2 (11:43)
03 - Improvisation 3 (11:40)
04 - Improvisation 4 (9:59)
05 - Improvisation 5 - Mass Projection (27:21)
06 - applause (1:41)
Доп. информация
New Direction Unit
Masayuki Takayanagi: gut guitar (2), electric guitar (1, 3, 5)
Yoshiaki Fujikawa: flute (2), clarinet (3), alto saxophone (4, 5), soprano saxophone (1)
Hiroshi Yamazaki: percussion (1-3, 5)
Akira Ijima: gut guitar (2), electric guitar (1, 3, 5)
Recorded live at New Direction Unit Regular Concert No. 36, Jean Jean, Shibuya, Tokyo, August 4, 1977
 
Отчёт EAC CD3
Exact Audio Copy V0.99 prebeta 5 from 4. May 2009
EAC extraction logfile from 12. July 2009, 14:31
New Direction Unit / Regular Concert No.36
Used drive : HL-DT-STDVDRAM GSA-4167B Adapter: 0 ID: 0
Read mode : Secure
Utilize accurate stream : Yes
Defeat audio cache : Yes
Make use of C2 pointers : No
Read offset correction : 667
Overread into Lead-In and Lead-Out : No
Fill up missing offset samples with silence : Yes
Delete leading and trailing silent blocks : No
Null samples used in CRC calculations : Yes
Used interface : Installed external ASPI interface
Gap handling : Appended to previous track
Used output format : User Defined Encoder
Selected bitrate : 768 kBit/s
Quality : High
Add ID3 tag : No
Command line compressor : C:\Program Files\Exact Audio Copy\FLAC\FLAC.EXE
Additional command line options : -V -8 -T "artist=%a" -T "title=%t" -T "album=%g" -T "date=%y" -T "tracknumber=%n" -T "genre=%m" %s
TOC of the extracted CD
Track | Start | Length | Start sector | End sector
---------------------------------------------------------
1 | 0:00.00 | 13:47.27 | 0 | 62051
2 | 13:47.27 | 11:42.56 | 62052 | 114757
3 | 25:30.08 | 11:40.23 | 114758 | 167280
4 | 37:10.31 | 9:58.51 | 167281 | 212181
5 | 47:09.07 | 27:20.64 | 212182 | 335245
6 | 74:29.71 | 1:41.00 | 335246 | 342820
Track 1
Filename N:\EAC\Masayuki Takayanagi Archive I\B-16\01 - New Direction Unit - Improvisation 1.wav
Pre-gap length 0:00:02.00
Peak level 98.6 %
Track quality 100.0 %
Test CRC F9D09894
Copy CRC F9D09894
Track not present in AccurateRip database
Copy OK
Track 2
Filename N:\EAC\Masayuki Takayanagi Archive I\B-16\02 - New Direction Unit - Improvisation 2.wav
Pre-gap length 0:00:07.28
Peak level 99.4 %
Track quality 100.0 %
Test CRC B15928E5
Copy CRC B15928E5
Track not present in AccurateRip database
Copy OK
Track 3
Filename N:\EAC\Masayuki Takayanagi Archive I\B-16\03 - New Direction Unit - Improvisation 3.wav
Pre-gap length 0:00:06.70
Peak level 99.0 %
Track quality 99.9 %
Test CRC CE7E9A34
Copy CRC CE7E9A34
Track not present in AccurateRip database
Copy OK
Track 4
Filename N:\EAC\Masayuki Takayanagi Archive I\B-16\04 - New Direction Unit - Improvisation 4.wav
Pre-gap length 0:00:06.51
Peak level 86.2 %
Track quality 100.0 %
Test CRC 7C3CCA63
Copy CRC 7C3CCA63
Track not present in AccurateRip database
Copy OK
Track 5
Filename N:\EAC\Masayuki Takayanagi Archive I\B-16\05 - New Direction Unit - Improvisation 5 - Mass Projection.wav
Pre-gap length 0:00:06.28
Peak level 99.7 %
Track quality 100.0 %
Test CRC 1846C80C
Copy CRC 1846C80C
Track not present in AccurateRip database
Copy OK
Track 6
Filename N:\EAC\Masayuki Takayanagi Archive I\B-16\06 - New Direction Unit - applause.wav
Pre-gap length 0:00:08.55
Peak level 83.5 %
Track quality 100.0 %
Test CRC CE77C32A
Copy CRC CE77C32A
Track not present in AccurateRip database
Copy OK
None of the tracks are present in the AccurateRip database
No errors occurred
End of status report
Продолжительность: 1:18:21
Трэклист:
01 - Improvisation 1 - Gradually Projection (39:02)
02 - Improvisation 2 - Mass Projection (38:38)
03 - applause (0:41)
Доп. информация
New Direction Unit
Masayuki Takayanagi: gut guitar, electric guitar
Yoshiaki Fujikawa: flute, clarinet, alto saxophone, soprano saxophone
Hiroshi Yamazaki: percussion
Akira Ijima: gut guitar, electric guitar
Kenji Seyama: percussion
Recorded live at New Direction Unit Regular Concert No. 39, Jean Jean, Shibuya, Tokyo, February 10, 1978
 
Отчёт EAC CD4
Exact Audio Copy V0.99 prebeta 5 from 4. May 2009
EAC extraction logfile from 12. July 2009, 15:39
New Direction Unit / Regular Concert No.39
Used drive : HL-DT-STDVDRAM GSA-4167B Adapter: 0 ID: 0
Read mode : Secure
Utilize accurate stream : Yes
Defeat audio cache : Yes
Make use of C2 pointers : No
Read offset correction : 667
Overread into Lead-In and Lead-Out : No
Fill up missing offset samples with silence : Yes
Delete leading and trailing silent blocks : No
Null samples used in CRC calculations : Yes
Used interface : Installed external ASPI interface
Gap handling : Appended to previous track
Used output format : User Defined Encoder
Selected bitrate : 768 kBit/s
Quality : High
Add ID3 tag : No
Command line compressor : C:\Program Files\Exact Audio Copy\FLAC\FLAC.EXE
Additional command line options : -V -8 -T "artist=%a" -T "title=%t" -T "album=%g" -T "date=%y" -T "tracknumber=%n" -T "genre=%m" %s
TOC of the extracted CD
Track | Start | Length | Start sector | End sector
---------------------------------------------------------
1 | 0:00.00 | 39:02.17 | 0 | 175666
2 | 39:02.17 | 38:38.34 | 175667 | 349550
3 | 77:40.51 | 0:40.54 | 349551 | 352604
Track 1
Filename N:\EAC\Masayuki Takayanagi Archive I\B-17\01 - New Direction Unit - Improvisation 1 - Gradually Projection.wav
Pre-gap length 0:00:02.00
Peak level 98.0 %
Track quality 100.0 %
Test CRC C74CF755
Copy CRC C74CF755
Track not present in AccurateRip database
Copy OK
Track 2
Filename N:\EAC\Masayuki Takayanagi Archive I\B-17\02 - New Direction Unit - Improvisation 2 - Mass Projection.wav
Pre-gap length 0:00:07.35
Peak level 92.8 %
Track quality 99.9 %
Test CRC 6DB08A2C
Copy CRC 6DB08A2C
Track not present in AccurateRip database
Copy OK
Track 3
Filename N:\EAC\Masayuki Takayanagi Archive I\B-17\03 - New Direction Unit - applause.wav
Pre-gap length 0:00:11.60
Peak level 68.9 %
Track quality 100.0 %
Test CRC D7A76FA7
Copy CRC D7A76FA7
Track not present in AccurateRip database
Copy OK
None of the tracks are present in the AccurateRip database
No errors occurred
End of status report
Продолжительность: 1:11:29
Трэклист:
01 - Improvisation 1 (19:40)
02 - Improvisation 2 (14:46)
03 - Improvisation 3 (12:36)
04 - Improvisation 4 - Mass Projection (22:20)
05 - applause (2:08)
Доп. информация
New Direction Unit
Masayuki Takayanagi: gut guitar (2), electric guitar (1, 4)
Kenji Mori: flute (1), bass clarinet (2), alto saxophone (4)
Nobuyoshi Ino: bass (1, 2, 4)
Hiroshi Yamazaki: percussion (1, 2, 4), drums (3)
Akira Ijima: gut guitar (2), electric guitar (1, 4)
Kenji Seyama: percussion (1, 2, 4)
Recorded live at New Direction Unit Regular Concert No. 43, Jean Jean, Shibuya, Tokyo, October 6, 1978
 
Отчёт EAC CD5
Exact Audio Copy V0.99 prebeta 5 from 4. May 2009
EAC extraction logfile from 12. July 2009, 15:14
New Direction Unit / Regular Concert No.43
Used drive : HL-DT-STDVDRAM GSA-4167B Adapter: 0 ID: 0
Read mode : Secure
Utilize accurate stream : Yes
Defeat audio cache : Yes
Make use of C2 pointers : No
Read offset correction : 667
Overread into Lead-In and Lead-Out : No
Fill up missing offset samples with silence : Yes
Delete leading and trailing silent blocks : No
Null samples used in CRC calculations : Yes
Used interface : Installed external ASPI interface
Gap handling : Appended to previous track
Used output format : User Defined Encoder
Selected bitrate : 768 kBit/s
Quality : High
Add ID3 tag : No
Command line compressor : C:\Program Files\Exact Audio Copy\FLAC\FLAC.EXE
Additional command line options : -V -8 -T "artist=%a" -T "title=%t" -T "album=%g" -T "date=%y" -T "tracknumber=%n" -T "genre=%m" %s
TOC of the extracted CD
Track | Start | Length | Start sector | End sector
---------------------------------------------------------
1 | 0:00.00 | 19:39.57 | 0 | 88481
2 | 19:39.57 | 14:45.64 | 88482 | 154920
3 | 34:25.46 | 12:35.52 | 154921 | 211597
4 | 47:01.23 | 22:20.07 | 211598 | 312104
5 | 69:21.30 | 2:08.15 | 312105 | 321719
Track 1
Filename N:\EAC\Masayuki Takayanagi Archive I\B-18\01 - New Direction Unit - Improvisation 1.wav
Pre-gap length 0:00:02.00
Peak level 100.0 %
Track quality 100.0 %
Test CRC 19AC0F24
Copy CRC 19AC0F24
Track not present in AccurateRip database
Copy OK
Track 2
Filename N:\EAC\Masayuki Takayanagi Archive I\B-18\02 - New Direction Unit - Improvisation 2.wav
Pre-gap length 0:00:06.28
Peak level 100.0 %
Track quality 100.0 %
Test CRC CE83DF14
Copy CRC CE83DF14
Track not present in AccurateRip database
Copy OK
Track 3
Filename N:\EAC\Masayuki Takayanagi Archive I\B-18\03 - New Direction Unit - Improvisation 3.wav
Pre-gap length 0:00:07.22
Peak level 98.3 %
Track quality 100.0 %
Test CRC 94D17665
Copy CRC 94D17665
Track not present in AccurateRip database
Copy OK
Track 4
Filename N:\EAC\Masayuki Takayanagi Archive I\B-18\04 - New Direction Unit - Improvisation 4 - Mass Projection.wav
Pre-gap length 0:00:07.28
Peak level 93.9 %
Track quality 100.0 %
Test CRC 77F553A7
Copy CRC 77F553A7
Track not present in AccurateRip database
Copy OK
Track 5
Filename N:\EAC\Masayuki Takayanagi Archive I\B-18\05 - New Direction Unit - applause.wav
Pre-gap length 0:00:12.11
Peak level 75.0 %
Track quality 99.9 %
Test CRC 3F50F7B6
Copy CRC 3F50F7B6
Track not present in AccurateRip database
Copy OK
None of the tracks are present in the AccurateRip database
No errors occurred
End of status report
Any questions -> support@pro-jazz.com. По всем вопросам пишите -> support@pro-jazz.com
14:06
200
Нет комментариев. Ваш будет первым!