Вы используете незарегистрированную версию компонента "Вкладки"!

Поиск

(jazz, avant-garde) julius hemphill - blue boye 1977, FLAC (tracks+.cue), lossless

(jazz, avant-garde) julius hemphill - blue boye 1977, FLAC (tracks+.cue), lossless
Треклист:


julius hemphill -Blue Boye
Жанр: jazz, avant-garde
Год выпуска: 1977
Формат: FLAC (tracks+.cue)
Битрейт аудио: lossless
Продолжительность:
Источник: ed2k
Julius Hemphill, alto and soprano saxophones, flute, percussion
Recorded January 1977 at Larchmont, NY

disc 1

1. Countryside (10:48)
2. Hotend (13:19)
3. OK Rubberband (9:59)
4. Antecedent (8:48)

 
logfile
EAC extraction logfile from 17. June 2007, 6:02 for CD
Julius Hemphill / Blue Boye
Used drive : TSSTcorpCD/DVDW SH-S182M Adapter: 1 ID: 1
Read mode : Secure with NO C2, accurate stream, disable cache
Read offset correction : 6
Overread into Lead-In and Lead-Out : No
Used output format : C:\Program Files\FLAC\flac.exe (User Defined Encoder)
128 kBit/s
Additional command line options : -8 -V -T "ARTIST=%a" -T "TITLE=%t" -T "ALBUM=%g" -T "DATE=%y" -T "TRACKNUMBER=%n" -T "GENRE=%m" -T "COMMENT=EAC Flac 1.1.4 -8" %s
Other options :
Fill up missing offset samples with silence : Yes
Delete leading and trailing silent blocks : No
Installed external ASPI interface
Track 1
Filename C:\My Music\Julius Hemphill - Blue Boye\Disc 1 of 2\01 - Countryside.wav
Pre-gap length 0:00:02.00
Peak level 69.7 %
Track quality 100.0 %
Test CRC 272147A6
Copy CRC 272147A6
Copy OK
Track 2
Filename C:\My Music\Julius Hemphill - Blue Boye\Disc 1 of 2\02 - Hotend.wav
Peak level 73.2 %
Track quality 100.0 %
Test CRC FB256213
Copy CRC FB256213
Copy OK
Track 3
Filename C:\My Music\Julius Hemphill - Blue Boye\Disc 1 of 2\03 - OK Rubberband.wav
Peak level 38.4 %
Track quality 100.0 %
Test CRC 46A8BD0C
Copy CRC 46A8BD0C
Copy OK
Track 4
Filename C:\My Music\Julius Hemphill - Blue Boye\Disc 1 of 2\04 - Antecedent.wav
Peak level 41.4 %
Track quality 100.0 %
Test CRC A967DFF9
Copy CRC A967DFF9
Copy OK
No errors occured
End of status report


disc 2

1. Kansas City Line (9:20)
2. C.M.E. (12:19)
3. Dirty Row (8:24)
4. Homeboy Tootin' at the Dog/Star (9:47)

 
logfile
EAC extraction logfile from 17. June 2007, 6:32 for CD
Julius Hemphill / Blue Boye
Used drive : TSSTcorpCD/DVDW SH-S182M Adapter: 1 ID: 1
Read mode : Secure with NO C2, accurate stream, disable cache
Read offset correction : 6
Overread into Lead-In and Lead-Out : No
Used output format : C:\Program Files\FLAC\flac.exe (User Defined Encoder)
128 kBit/s
Additional command line options : -8 -V -T "ARTIST=%a" -T "TITLE=%t" -T "ALBUM=%g" -T "DATE=%y" -T "TRACKNUMBER=%n" -T "GENRE=%m" -T "COMMENT=EAC Flac 1.1.4 -8" %s
Other options :
Fill up missing offset samples with silence : Yes
Delete leading and trailing silent blocks : No
Installed external ASPI interface
Track 1
Filename C:\My Music\Julius Hemphill - Blue Boye\Disc 2 of 2\01 - Kansas City Line.wav
Pre-gap length 0:00:02.00
Peak level 58.8 %
Track quality 100.0 %
Test CRC 9241B6C1
Copy CRC 9241B6C1
Copy OK
Track 2
Filename C:\My Music\Julius Hemphill - Blue Boye\Disc 2 of 2\02 - C.M.E..wav
Pre-gap length 0:00:03.60
Peak level 58.9 %
Track quality 100.0 %
Test CRC 9139211D
Copy CRC 9139211D
Copy OK
Track 3
Filename C:\My Music\Julius Hemphill - Blue Boye\Disc 2 of 2\03 - Dirty Row.wav
Pre-gap length 0:00:03.60
Peak level 74.7 %
Track quality 100.0 %
Test CRC 352295DA
Copy CRC 352295DA
Copy OK
Track 4
Filename C:\My Music\Julius Hemphill - Blue Boye\Disc 2 of 2\04 - Home Boy Tootin' At The Dog,Star.wav
Pre-gap length 0:00:03.60
Peak level 69.1 %
Track quality 100.0 %
Test CRC 37E4FC29
Copy CRC 37E4FC29
Copy OK
No errors occured
End of status report


другие релизы
Any questions -> support@pro-jazz.com. По всем вопросам пишите -> support@pro-jazz.com
14:07
341
Нет комментариев. Ваш будет первым!