Вы используете незарегистрированную версию компонента "Вкладки"!

Поиск

(jazz, avant-garde) Anthony Braxton & Walter Franks - 4 Improvisations (Duets) 2004, FLAC (tracks+.cue), lossless

(jazz, avant-garde) Anthony Braxton & Walter Franks - 4 Improvisations (Duets) 2004, FLAC (tracks+.cue), lossless
Треклист:


Anthony Braxton & Walter Franks
4 Improvisations (Duets) 2004
Жанр:jazz, avant-garde
Год выпуска: 2004
Формат: FLAC (tracks+.cue)
Битрейт аудио: lossless
Продолжительность:
Источник: ed2k
Piano – Walter Franks*
Reeds – Anthony Braxton
Recorded 19 May, 2004
Leo Records ‎– CD LR 429/430

disc 1

Improvisation 1
Improvisation 2

 
logfile
Exact Audio Copy V0.99 prebeta 4 from 23. January 2008
EAC extraction logfile from 5. May 2009, 21:13
Anthony Braxton & Walter Franks / 4 Improvisations Duets 2004 Disc 1of2
Used drive : SAMSUNG DVD-ROM SD-616E Adapter: 0 ID: 1
Read mode : Secure
Utilize accurate stream : Yes
Defeat audio cache : Yes
Make use of C2 pointers : No
Read offset correction : 12
Overread into Lead-In and Lead-Out : No
Fill up missing offset samples with silence : Yes
Delete leading and trailing silent blocks : No
Null samples used in CRC calculations : Yes
Used interface : Native Win32 interface for Win NT & 2000
Gap handling : Appended to previous track
Used output format : User Defined Encoder
Selected bitrate : 128 kBit/s
Quality : High
Add ID3 tag : No
Command line compressor : C:\Program Files\FLAC\flac.exe
Additional command line options : -8 -V -T "ARTIST=%a" -T "TITLE=%t" -T "ALBUM=%g" -T "DATE=%y" -T "TRACKNUMBER=%n" -T "GENRE=%m" -T "COMMENT=EAC FLAC -8" %s
TOC of the extracted CD
Track | Start | Length | Start sector | End sector
---------------------------------------------------------
1 | 0:00.00 | 25:46.12 | 0 | 115961
2 | 25:46.12 | 22:02.28 | 115962 | 215139
Track 1
Filename G:\DL\Anthony Braxton & Walter Franks - 4 Improvisations Duets 2004 Disc 1of2 (2005) [FLAC] {Leo Records 429&430}\01 - Improvisation 1.wav
Pre-gap length 0:00:02.00
Peak level 100.0 %
Track quality 100.0 %
Test CRC F1A2C684
Copy CRC F1A2C684
Track not present in AccurateRip database
Copy OK
Track 2
Filename G:\DL\Anthony Braxton & Walter Franks - 4 Improvisations Duets 2004 Disc 1of2 (2005) [FLAC] {Leo Records 429&430}\02 - Improvisation 2.wav
Pre-gap length 0:00:02.28
Peak level 100.0 %
Track quality 100.0 %
Test CRC E4C55A40
Copy CRC E4C55A40
Track not present in AccurateRip database
Copy OK
None of the tracks are present in the AccurateRip database
No errors occurred
End of status report
Exact Audio Copy V0.99 prebeta 4 from 23. January 2008
EAC extraction logfile from 6. May 2009, 13:46
Anthony Braxton & Walter Franks / 4 Improvisations Duets 2004 Disc 2of2
Used drive : SAMSUNG DVD-ROM SD-616E Adapter: 0 ID: 1
Read mode : Secure
Utilize accurate stream : Yes
Defeat audio cache : Yes
Make use of C2 pointers : No
Read offset correction : 12
Overread into Lead-In and Lead-Out : No
Fill up missing offset samples with silence : Yes
Delete leading and trailing silent blocks : No
Null samples used in CRC calculations : Yes
Used interface : Native Win32 interface for Win NT & 2000
Gap handling : Appended to previous track
Used output format : User Defined Encoder
Selected bitrate : 128 kBit/s
Quality : High
Add ID3 tag : No
Command line compressor : C:\Program Files\FLAC\flac.exe
Additional command line options : -8 -V -T "ARTIST=%a" -T "TITLE=%t" -T "ALBUM=%g" -T "DATE=%y" -T "TRACKNUMBER=%n" -T "GENRE=%m" -T "COMMENT=EAC FLAC -8" %s
TOC of the extracted CD
Track | Start | Length | Start sector | End sector
---------------------------------------------------------
1 | 0:00.00 | 26:57.02 | 0 | 121276
2 | 26:57.02 | 22:49.13 | 121277 | 223964
Track 1
Filename G:\DL\Anthony Braxton & Walter Franks - 4 Improvisations Duets 2004 Disc 2of2 (2005) [FLAC] {Leo Records 429&430}\01 - Improvisation 3.wav
Pre-gap length 0:00:02.00
Peak level 100.0 %
Track quality 100.0 %
Test CRC 23EF0ACD
Copy CRC 23EF0ACD
Track not present in AccurateRip database
Copy OK
Track 2
Filename G:\DL\Anthony Braxton & Walter Franks - 4 Improvisations Duets 2004 Disc 2of2 (2005) [FLAC] {Leo Records 429&430}\02 - Improvisation 4.wav
Pre-gap length 0:00:04.00
Peak level 100.0 %
Track quality 100.0 %
Test CRC E3F994E5
Copy CRC E3F994E5
Track not present in AccurateRip database
Copy OK
None of the tracks are present in the AccurateRip database
No errors occurred
End of status report


disc 2

Improvisation 3
Improvisation 4

 
logfile
Exact Audio Copy V0.99 prebeta 4 from 23. January 2008
EAC extraction logfile from 6. May 2009, 13:46
Anthony Braxton & Walter Franks / 4 Improvisations Duets 2004 Disc 2of2
Used drive : SAMSUNG DVD-ROM SD-616E Adapter: 0 ID: 1
Read mode : Secure
Utilize accurate stream : Yes
Defeat audio cache : Yes
Make use of C2 pointers : No
Read offset correction : 12
Overread into Lead-In and Lead-Out : No
Fill up missing offset samples with silence : Yes
Delete leading and trailing silent blocks : No
Null samples used in CRC calculations : Yes
Used interface : Native Win32 interface for Win NT & 2000
Gap handling : Appended to previous track
Used output format : User Defined Encoder
Selected bitrate : 128 kBit/s
Quality : High
Add ID3 tag : No
Command line compressor : C:\Program Files\FLAC\flac.exe
Additional command line options : -8 -V -T "ARTIST=%a" -T "TITLE=%t" -T "ALBUM=%g" -T "DATE=%y" -T "TRACKNUMBER=%n" -T "GENRE=%m" -T "COMMENT=EAC FLAC -8" %s
TOC of the extracted CD
Track | Start | Length | Start sector | End sector
---------------------------------------------------------
1 | 0:00.00 | 26:57.02 | 0 | 121276
2 | 26:57.02 | 22:49.13 | 121277 | 223964
Track 1
Filename G:\DL\Anthony Braxton & Walter Franks - 4 Improvisations Duets 2004 Disc 2of2 (2005) [FLAC] {Leo Records 429&430}\01 - Improvisation 3.wav
Pre-gap length 0:00:02.00
Peak level 100.0 %
Track quality 100.0 %
Test CRC 23EF0ACD
Copy CRC 23EF0ACD
Track not present in AccurateRip database
Copy OK
Track 2
Filename G:\DL\Anthony Braxton & Walter Franks - 4 Improvisations Duets 2004 Disc 2of2 (2005) [FLAC] {Leo Records 429&430}\02 - Improvisation 4.wav
Pre-gap length 0:00:04.00
Peak level 100.0 %
Track quality 100.0 %
Test CRC E3F994E5
Copy CRC E3F994E5
Track not present in AccurateRip database
Copy OK
None of the tracks are present in the AccurateRip database
No errors occurred
End of status report


http://www.discogs.com/Anthony-Braxton-Walter-Franks-4-Improvisations-Duets-2004/release/2431737
другие релизы
По всем вопросам пишите личное сообщение пользователю M0p94ok.
14:05
239
Нет комментариев. Ваш будет первым!