Поиск

(free improvisation) Lucas Niggli & Sylvie Courvoisier - Lavin - 1999, FLAC (image + .cue), lossless

(free improvisation) Lucas Niggli & Sylvie Courvoisier - Lavin - 1999, FLAC (image + .cue), lossless
Треклист:
Lucas Niggli & Sylvie Courvoisier - Lavin
Страна: Switzerland
Жанр: free improvisation
Год выпуска: 1999
Формат: FLAC (image + .cue)
Битрейт аудио: lossless
Продолжительность: 49:24
Трэклист:
1. Lavin
2. Miniature I
3. Solitude
4. Buzz
5. Contreparties
6. Miniature II
7. Miniature III
8. FRlies In A Furry Flotsam
9. La Vouta
10. Gate Lane
11. Miniature IV
12. Muzette
13. Miniature V
14. Black Hole
Доп. информация: Lucas Niggli - drums, percussion
Sylvie Courvoisier - piano
Очень тонкая, но дерзкая свободная импровизация. Релиз почтенного швейцарского лейбла Intakt, что является абсолютным знаком качества.
 
Отчет EAC
Exact Audio Copy V0.99 prebeta 4 from 23. January 2008
Отчёт EAC об извлечении, выполненном 12. мая 2008, 0:14
Lucas Niggli & Sylvie Courvoisier / Lavin
Дисковод: Optiarc DVD RW AD-7170A Adapter: 0 ID: 1
Режим чтения : Достоверность
Использование точного потока : Да
Отключение кэша аудио : Да
Использование указателей C2 : Нет
Коррекция смещения при чтении : 48
Способность читать области Lead-in и Lead-out : Нет
Заполнение пропущенных сэмплов тишиной : Да
Удаление блоков с тишиной в начале и конце : Нет
При вычислениях CRC использовались нулевые сэмплы : Нет
Интерфейс : Встроенный Win32-интерфейс для Win NT/2000
Выходной формат : Пользовательский кодировщик
Выбранный битрейт : 768 kBit/s
Качество : Высокий
Добавление ID3-тэга : Нет
Утилита сжатия : C:\Program Files\Exact Audio Copy\FLAC\FLAC.EXE
Дополнительные параметры : -6 -V -T "ARTIST=%a" -T "TITLE=%t" -T "ALBUM=%g" -T "DATE=%y" -T "TRACKNUMBER=%n" -T "GENRE=%m" -T "COMMENT=%e" %s -o %d
TOC извлечённого CD
Трек | Старт | Длительность | Начальный сектор | Конечный сектор
---------------------------------------------------------------------
1 | 0:00.20 | 7:37.19 | 20 | 34313
2 | 7:37.39 | 1:08.15 | 34314 | 39428
3 | 8:45.54 | 4:50.09 | 39429 | 61187
4 | 13:35.63 | 4:18.58 | 61188 | 80595
5 | 17:54.46 | 4:08.03 | 80596 | 99198
6 | 22:02.49 | 1:34.17 | 99199 | 106265
7 | 23:36.66 | 2:24.50 | 106266 | 117115
8 | 26:01.41 | 2:20.32 | 117116 | 127647
9 | 28:21.73 | 3:28.52 | 127648 | 143299
10 | 31:50.50 | 4:45.69 | 143300 | 164743
11 | 36:36.44 | 1:32.42 | 164744 | 171685
12 | 38:09.11 | 3:11.23 | 171686 | 186033
13 | 41:20.34 | 1:59.21 | 186034 | 194979
14 | 43:19.55 | 6:05.20 | 194980 | 222374
Характеристики диапазона извлечения и сообщения об ошибках
Выбранный диапазон
Имя файла C:\Music\Lucas Niggli & Sylvie Courvoisier - Lavin.wav
Пиковый уровень 99.6 %
Качество диапазона 99.9 %
CRC копии 0D2921A9
Копирование... OK
Ошибок не произошло
Конец отчёта
Приватный:
Нет (DHT включён)
Размер:
210.13 Мб (220,332,868 байт) » файлов: 3
Участники:
0 раздают, 0 качают (0 участников всего)
Внешние участники:
1 раздают, 0 качают (1 участников всего) [ Обновить ]
No seeders - write a personal message to user M0p94ok. Нет сидеров - пишите личное сообщение пользователю M0p94ok.
01:03
51
Нет комментариев. Ваш будет первым!