Поиск

(avantgarde, Tzadik) Mephista (Sylvie Courvoisier / Ikue Mori / Susie Ibarra) - Black Narcissus - 2002, FLAC (image + .cue), lossless

(avantgarde, Tzadik) Mephista (Sylvie Courvoisier / Ikue Mori / Susie Ibarra) - Black Narcissus - 2002, FLAC (image + .cue), lossless
Треклист:
Mephista (Sylvie Courvoisier / Ikue Mori / Susie Ibarra) - Black Narcissus
Страна: UAS
Жанр: avantgarde, Tzadik
Год выпуска: 2002
Формат: FLAC (image + .cue)
Битрейт аудио: lossless
Продолжительность: 58:34
Трэклист:
1. The Children’s Hour
2. Black Narcissus
3. Willow’s Weep
4. Cabbalussa
5. Poison Ivy
6. Black Widow
7. Legend of Pele
8. Leda and the Swan
9. Laughing Medusa
Доп. информация: Sylvie Courvoisier: Piano
Susie Ibarra: Drums
Ikue Mori: Electronics
 
Oтчет EAC
Exact Audio Copy V0.99 prebeta 4 from 23. January 2008
Отчёт EAC об извлечении, выполненном 11. мая 2008, 19:36
mephista / black narcissus
Дисковод: Optiarc DVD RW AD-7170A Adapter: 0 ID: 1
Режим чтения : Достоверность
Использование точного потока : Да
Отключение кэша аудио : Да
Использование указателей C2 : Нет
Коррекция смещения при чтении : 48
Способность читать области Lead-in и Lead-out : Нет
Заполнение пропущенных сэмплов тишиной : Да
Удаление блоков с тишиной в начале и конце : Нет
При вычислениях CRC использовались нулевые сэмплы : Нет
Интерфейс : Встроенный Win32-интерфейс для Win NT/2000
Выходной формат : Пользовательский кодировщик
Выбранный битрейт : 768 kBit/s
Качество : Высокий
Добавление ID3-тэга : Нет
Утилита сжатия : C:\Program Files\Exact Audio Copy\FLAC\FLAC.EXE
Дополнительные параметры : -6 -V -T "ARTIST=%a" -T "TITLE=%t" -T "ALBUM=%g" -T "DATE=%y" -T "TRACKNUMBER=%n" -T "GENRE=%m" -T "COMMENT=%e" %s -o %d
TOC извлечённого CD
Трек | Старт | Длительность | Начальный сектор | Конечный сектор
---------------------------------------------------------------------
1 | 0:00.00 | 3:26.15 | 0 | 15464
2 | 3:26.15 | 6:44.62 | 15465 | 45826
3 | 10:11.02 | 8:11.03 | 45827 | 82654
4 | 18:22.05 | 7:05.02 | 82655 | 114531
5 | 25:27.07 | 3:24.70 | 114532 | 129901
6 | 28:52.02 | 14:47.15 | 129902 | 196441
7 | 43:39.17 | 6:02.55 | 196442 | 223646
8 | 49:41.72 | 5:37.48 | 223647 | 248969
9 | 55:19.45 | 3:14.57 | 248970 | 263576
Характеристики диапазона извлечения и сообщения об ошибках
Выбранный диапазон
Имя файла C:\Music\mephista - black narcissus.wav
Пиковый уровень 100.0 %
Качество диапазона 99.9 %
CRC копии 61A49A22
Копирование... OK
Ошибок не произошло
Конец отчёта
Приватный:
Нет (DHT включён)
Размер:
306.77 Мб (321,670,906 байт) » файлов: 3
Участники:
0 раздают, 0 качают (0 участников всего)
Внешние участники:
2 раздают, 1 качают (3 участников всего) [ Обновить ]
No seeders - write a personal message to user M0p94ok. Нет сидеров - пишите личное сообщение пользователю M0p94ok.
01:02
63
Нет комментариев. Ваш будет первым!