Поиск

(free-jazz, noise, experimental, Tzadik) Otomo Yoshihide's New Jazz Ensemble - Dreams - 2002, FLAC (image + .cue), lossless

(free-jazz, noise, experimental, Tzadik) Otomo Yoshihide's New Jazz Ensemble - Dreams - 2002, FLAC (image + .cue), lossless
Треклист:
Otomo Yoshihide's New Jazz Ensemble - Dreams
Страна: Japan
Жанр: free-jazz, noise, experimental, Tzadik
Год выпуска: 2002
Формат: FLAC (image + .cue)
Битрейт аудио: lossless
Продолжительность: 50:46
Трэклист:
1 Preach 4:11
2 Yume 9:26
3 Good Morning 6:50
4 Teinen Pushiganga 3:01
5 Toi Hibiki 7:09
6 Eureka 16:20
7 Hahen Fukei 3:48
Доп. информация: Tsugami Kenta - soprano & alto saxophones
Kikuchi Naruyoshi - soprano & tenor saxophones
Otomo Yoshihide - prepared acoustic guitar, electric guitar, acoustic guitar
Sachiko M - sine waves
Masuko Tatsuki - DX7, SH101, effects, hot touch noises
Mizutani Hiroaki - conta bass
Yoshigaki Yasuhiro - drums
Phew - vocal
Togawa Jun - vocal, vocal with crystal microphone
original liner notes : The first release outside of Japan featuring two of Japan's quirkiest underground pop stars. From the high fragile sonorities of Togawa Jun to the velvet, sultry tones of Phew, Dreams runs the gamut from moody love songs, driving groove to screaming noise. Otomo's exciting New Jazz Ensemble and creative arrangements perfectly set up the diverse vocal stylings of these two legendary divas out of the Tokyo indies scene.
 
Отчет EAC
Exact Audio Copy V0.99 prebeta 4 from 23. January 2008
Отчёт EAC об извлечении, выполненном 11. мая 2008, 18:33
Otomo Yoshihide's New Jazz Ensemble / Dreams
Дисковод: Optiarc DVD RW AD-7170A Adapter: 0 ID: 1
Режим чтения : Достоверность
Использование точного потока : Да
Отключение кэша аудио : Да
Использование указателей C2 : Нет
Коррекция смещения при чтении : 48
Способность читать области Lead-in и Lead-out : Нет
Заполнение пропущенных сэмплов тишиной : Да
Удаление блоков с тишиной в начале и конце : Нет
При вычислениях CRC использовались нулевые сэмплы : Нет
Интерфейс : Встроенный Win32-интерфейс для Win NT/2000
Выходной формат : Пользовательский кодировщик
Выбранный битрейт : 768 kBit/s
Качество : Высокий
Добавление ID3-тэга : Нет
Утилита сжатия : C:\Program Files\Exact Audio Copy\FLAC\FLAC.EXE
Дополнительные параметры : -6 -V -T "ARTIST=%a" -T "TITLE=%t" -T "ALBUM=%g" -T "DATE=%y" -T "TRACKNUMBER=%n" -T "GENRE=%m" -T "COMMENT=%e" %s -o %d
TOC извлечённого CD
Трек | Старт | Длительность | Начальный сектор | Конечный сектор
---------------------------------------------------------------------
1 | 0:00.00 | 4:11.09 | 0 | 18833
2 | 4:11.09 | 9:26.09 | 18834 | 61292
3 | 13:37.18 | 6:50.09 | 61293 | 92051
4 | 20:27.27 | 3:00.63 | 92052 | 105614
5 | 23:28.15 | 7:09.35 | 105615 | 137824
6 | 30:37.50 | 16:20.10 | 137825 | 211334
7 | 46:57.60 | 3:48.25 | 211335 | 228459
Характеристики диапазона извлечения и сообщения об ошибках
Выбранный диапазон
Имя файла C:\Music\Otomo Yoshihide's New Jazz Ensemble - Dreams.wav
Пиковый уровень 100.0 %
Качество диапазона 100.0 %
CRC копии 6259E7AD
Копирование... OK
Ошибок не произошло
AccurateRip: сводка
Трек 1 точное извлечение (доверие 1) [5A674745]
Трек 2 точное извлечение (доверие 1) [E96D74F4]
Трек 3 точное извлечение (доверие 1) [57E9E977]
Трек 4 точное извлечение (доверие 1) [8D73A8FA]
Трек 5 точное извлечение (доверие 1) [6BE631E3]
Трек 6 точное извлечение (доверие 1) [F07E066E]
Трек 7 точное извлечение (доверие 1) [2D26B69A]
Все треки извлечены точно
Конец отчёта
Приватный:
Нет (DHT включён)
Размер:
305.91 Мб (320,765,214 байт) » файлов: 3
Участники:
0 раздают, 0 качают (0 участников всего)
Внешние участники:
2 раздают, 1 качают (3 участников всего) [ Обновить ]
No seeders - write a personal message to user M0p94ok. Нет сидеров - пишите личное сообщение пользователю M0p94ok.
01:02
65
Нет комментариев. Ваш будет первым!