Поиск

(free jazz, post-bop) Roswell Rudd, Steve Lacy, Misha Mengelberg, Kent Carter, Hank Bennink - Regeneration, FLAC (tracks+.cue) lossless

(free jazz, post-bop) Roswell Rudd, Steve Lacy, Misha Mengelberg, Kent Carter, Hank Bennink - Regeneration, FLAC (tracks+.cue) lossless
Треклист:
(free jazz, post-bop) [cd] Roswell Rudd, Steve Lacy, Misha Mengelberg, Kent Carter, Han Bennink - Regeneration 1982, FLAC (tracks+.cue), lossless


Rudd, Steve Lacy, Misha Mengelberg, Kent Carter, Han Bennink
Regeneration
Жанр:free jazz, post-bop
Год выпуска: 1982
Издатель (лейбл):Soul Note / SN 121054-2
Формат: FLAC (tracks+.cue)
Битрейт аудио: lossless
Продолжительность 40`41
Источник: /what.cd
Steve Lacy: soprano saxophone
Roswell Rudd: trombone
Misha Mengelberg: piano
Kent Carter: bass
Han Bennink: drums
Recorded on 25 & 26 June, 1982 at Barigozzi Studio, Milano, Italy.

tracks

1. Blue Chopsticks (6:19)
2. 2300 Skiddoo (8:18)
3. Twelve Bars (4:27)
4. Monk's Mood (8:11)
5. Friday The 13th (9:13)
6. Epistrophy (4:09)


 
.log
Exact Audio Copy V1.1 from 23. June 2015
EAC extraction logfile from 1. September 2015, 19:20
Roswell Rudd / Regeneration
Used drive : TS8XDVDSTRANSCEND Adapter: 1 ID: 1
Read mode : Secure
Utilize accurate stream : Yes
Defeat audio cache : Yes
Make use of C2 pointers : No
Read offset correction : 6
Overread into Lead-In and Lead-Out : No
Fill up missing offset samples with silence : Yes
Delete leading and trailing silent blocks : No
Null samples used in CRC calculations : Yes
Used interface : Native Win32 interface for Win NT & 2000
Gap handling : Appended to previous track
Used output format : User Defined Encoder
Selected bitrate : 1024 kBit/s
Quality : High
Add ID3 tag : No
Command line compressor : C:\Program Files (x86)\Exact Audio Copy\Flac\flac.exe
Additional command line options : -8 -V -T "ARTIST=%artist%" -T "TITLE=%title%" -T "ALBUM=%albumtitle%" -T "DATE=%year%" -T "TRACKNUMBER=%tracknr%" -T "GENRE=%genre%" -T "PERFORMER=%albuminterpret%" -T "COMPOSER=%composer%" %haslyrics%--tag-from-file=LYRICS="%lyricsfile%"%haslyrics% -T "ALBUMARTIST=%albumartist%" -T "DISCNUMBER=%cdnumber%" -T "TOTALDISCS=%totalcds%" -T "TOTALTRACKS=%numtracks%" -T "COMMENT=%comment%" %source% -o %dest%
TOC of the extracted CD
Track | Start | Length | Start sector | End sector
---------------------------------------------------------
1 | 0:00.33 | 6:19.67 | 33 | 28524
2 | 6:20.25 | 8:18.40 | 28525 | 65914
3 | 14:38.65 | 4:27.43 | 65915 | 85982
4 | 19:06.33 | 8:11.55 | 85983 | 122862
5 | 27:18.13 | 9:13.37 | 122863 | 164374
6 | 36:31.50 | 4:09.65 | 164375 | 183114
Track 1
Filename I:\01 - Blue Chopsticks.wav
Pre-gap length 0:00:02.44
Peak level 100.0 %
Extraction speed 2.8 X
Track quality 100.0 %
Test CRC A7E5017B
Copy CRC A7E5017B
Accurately ripped (confidence 5) [E05A0CE3] (AR v1)
Copy OK
Track 2
Filename I:\02 - 2300 Skiddoo.wav
Pre-gap length 0:00:01.84
Peak level 100.0 %
Extraction speed 3.4 X
Track quality 100.0 %
Test CRC 78FD2A2B
Copy CRC 78FD2A2B
Accurately ripped (confidence 5) [45042340] (AR v1)
Copy OK
Track 3
Filename I:\03 - Twelve Bars.wav
Pre-gap length 0:00:01.46
Peak level 100.0 %
Extraction speed 2.8 X
Track quality 99.9 %
Test CRC EBEAD6BF
Copy CRC EBEAD6BF
Accurately ripped (confidence 5) [03DA70A2] (AR v1)
Copy OK
Track 4
Filename I:\04 - Monk's Mood.wav
Pre-gap length 0:00:01.37
Peak level 100.0 %
Extraction speed 3.9 X
Track quality 100.0 %
Test CRC 25C74E0E
Copy CRC 25C74E0E
Accurately ripped (confidence 5) [08F11C40] (AR v1)
Copy OK
Track 5
Filename I:\05 - Friday The 13th.wav
Pre-gap length 0:00:01.01
Peak level 100.0 %
Extraction speed 4.4 X
Track quality 100.0 %
Test CRC 2F7437E3
Copy CRC 2F7437E3
Accurately ripped (confidence 4) [67F6B927] (AR v1)
Copy OK
Track 6
Filename I:\06 - Epistrophy.wav
Pre-gap length 0:00:01.33
Peak level 100.0 %
Extraction speed 4.3 X
Track quality 100.0 %
Test CRC 1C9635C7
Copy CRC 1C9635C7
Accurately ripped (confidence 5) [ED78155B] (AR v1)
Copy OK
All tracks accurately ripped
No errors occurred
End of status report
---- CUETools DB Plugin V2.1.6
[CTDB TOCID: GvfgwGmvU4NK3d68vXG3AVdGKF0-] found
Submit result: unrecognized or virtual drive
Track | CTDB Status
1 | (0/2) No match
2 | (0/2) No match
3 | (0/2) No match
4 | (0/2) No match
5 | (0/2) No match
6 | (0/2) No match
==== Log checksum DCEB8F36EF3163A9CF69CD3045B34D21A5D1DC221792A98684F4566920B85217 ====
 
.cue
REM GENRE Jazz
REM DATE 1983
REM DISCID 47098906
REM COMMENT "ExactAudioCopy v1.1"
CATALOG 0000000000000
PERFORMER "Roswell Rudd, Steve Lacy, Misha Mengelberg, Kent Carter, Hank Bennink"
TITLE "Regeneration"
FILE "01 - Blue Chopsticks.wav" WAVE
TRACK 01 AUDIO
TITLE "Blue Chopsticks"
PERFORMER "Roswell Rudd, Steve Lacy, Misha Mengelberg, Kent Carter, Hank Bennink"
FLAGS PRE
PREGAP 00:00:33
INDEX 01 00:00:00
TRACK 02 AUDIO
TITLE "2300 Skiddoo"
PERFORMER "Roswell Rudd, Steve Lacy, Misha Mengelberg, Kent Carter, Hank Bennink"
FLAGS PRE
INDEX 00 06:18:04
FILE "02 - 2300 Skiddoo.wav" WAVE
INDEX 01 00:00:00
TRACK 03 AUDIO
TITLE "Twelve Bars"
PERFORMER "Roswell Rudd, Steve Lacy, Misha Mengelberg, Kent Carter, Hank Bennink"
FLAGS PRE
INDEX 00 08:17:05
FILE "03 - Twelve Bars.wav" WAVE
INDEX 01 00:00:00
TRACK 04 AUDIO
TITLE "Monk's Mood"
PERFORMER "Roswell Rudd, Steve Lacy, Misha Mengelberg, Kent Carter, Hank Bennink"
FLAGS PRE
INDEX 00 04:26:15
FILE "04 - Monk's Mood.wav" WAVE
INDEX 01 00:00:00
TRACK 05 AUDIO
TITLE "Friday The 13th"
PERFORMER "Roswell Rudd, Steve Lacy, Misha Mengelberg, Kent Carter, Hank Bennink"
FLAGS PRE
INDEX 00 08:10:54
FILE "05 - Friday The 13th.wav" WAVE
INDEX 01 00:00:00
TRACK 06 AUDIO
TITLE "Epistrophy"
PERFORMER "Roswell Rudd, Steve Lacy, Misha Mengelberg, Kent Carter, Hank Bennink"
FLAGS PRE
INDEX 00 09:12:12
FILE "06 - Epistrophy.wav" WAVE
INDEX 01 00:00:00
 
.accurip
[CUETools log; Date: 02/09/15 05:20:38; Version: 2.1.4]
Pregap length 00:00:33.
[CTDB TOCID: GvfgwGmvU4NK3d68vXG3AVdGKF0-] found.
Track | CTDB Status
1 | (0/2) No match
2 | (0/2) No match
3 | (0/2) No match
4 | (0/2) No match
5 | (0/2) No match
6 | (0/2) No match
[AccurateRip ID: 0009ee39-00351e2a-47098906] found.
Track [ CRC | V2 ] Status
01 [e05a0ce3|e122c6b2] (5+0/5) Accurately ripped
02 [45042340|787f9d05] (5+0/5) Accurately ripped
03 [03da70a2|6597461a] (5+0/5) Accurately ripped
04 [08f11c40|806be5f3] (5+0/5) Accurately ripped
05 [67f6b927|59391018] (4+0/4) Accurately ripped
06 [ed78155b|e6a5877b] (5+0/5) Accurately ripped
Offsetted by -676:
01 [56d98f7b] (0/5) No match (V2 was not tested)
02 [2b4a5d95] (0/5) No match (V2 was not tested)
03 [c2ea2384] (0/5) No match (V2 was not tested)
04 [30ea1f13] (0/5) No match (V2 was not tested)
05 [5326dab6] (0/4) No match (V2 was not tested)
06 [4923066f] (0/5) No match (V2 was not tested)
Track Peak [ CRC32 ] [W/O NULL] [ LOG ]
-- 100.0 [4D0D6990] [7DA6A3A3]
01 100.0 [A7E5017B] [438E7A7E] CRC32
02 100.0 [78FD2A2B] [C1E8204D] CRC32
03 100.0 [EBEAD6BF] [1C8465B2] CRC32
04 100.0 [25C74E0E] [610DE18B] CRC32
05 100.0 [2F7437E3] [A299485D] CRC32
06 100.0 [1C9635C7] [944FF0D8] CRC32

http://www.discogs.com/Roswell-Rudd-Steve-Lacy-Misha-Mengelberg-Kent-Carter-Han-B.../release/1280150
другие релизы
Приватный:
Нет (DHT включён)
Размер:
257.81 Мб (270,332,552 байт) » файлов: 15
Участники:
0 раздают, 0 качают (0 участников всего)
Внешние участники:
3 раздают, 1 качают (4 участников всего) [ Обновить ]
Есть вопросы - пишите личное сообщение пользователю M0p94ok.
01:04
42
Нет комментариев. Ваш будет первым!