Вы используете незарегистрированную версию компонента "Вкладки"!

Поиск

(Free Improvisation) Last Seen Headed (Joelle Leandre / Francois Houle / Raymond Strid) - Live At Sons D'Hiver - 2010, FLAC (image+.cue), lossless

(Free Improvisation) Last Seen Headed (Joelle Leandre / Francois Houle / Raymond Strid) - Live At Sons D'Hiver - 2010, FLAC (image+.cue), lossless
Треклист:
Last Seen Headed / Live At Sons D'Hiver
Жанр: Free Improvisation
Страна-производитель диска: France
Год издания: 2010
Издатель (лейбл): Ayler Records
Номер по каталогу: aylCD-096
Аудиокодек: FLAC (*.flac)
Тип рипа: image+.cue
Битрейт аудио: lossless
Продолжительность: 50:16
Источник (релизер): cd
Наличие сканов в содержимом раздачи: нет
Треклист:
1 Last Seen Headed I 8:14
2 Last Seen Headed II 10:48
3 Last Seen Headed III 3:30
4 Last Seen Headed IV 6:42
5 Last Seen Headed V 8:39
6 Last Seen Headed VI 9:36
7 Last Seen Headed VII 2:45
 
Лог создания рипа
Exact Audio Copy V1.0 beta 2 from 29. April 2011
EAC extraction logfile from 25. September 2012, 13:35
Last Seen Headed / Live at Sons D'Hiver
Used drive : Optiarc DVD RW AD-7170A Adapter: 0 ID: 0
Read mode : Secure
Utilize accurate stream : Yes
Defeat audio cache : Yes
Make use of C2 pointers : No
Read offset correction : 48
Overread into Lead-In and Lead-Out : No
Fill up missing offset samples with silence : Yes
Delete leading and trailing silent blocks : No
Null samples used in CRC calculations : Yes
Used interface : Native Win32 interface for Win NT & 2000
Used output format : User Defined Encoder
Selected bitrate : 320 kBit/s
Quality : High
Add ID3 tag : No
Command line compressor : C:\Program Files\Exact Audio Copy\Flac\flac.exe
Additional command line options : -V -8 -T "Date=%year%" -T "Genre=%genre%" %source%
TOC of the extracted CD
Track | Start | Length | Start sector | End sector
---------------------------------------------------------
1 | 0:00.00 | 8:14.59 | 0 | 37108
2 | 8:14.59 | 10:48.00 | 37109 | 85708
3 | 19:02.59 | 3:30.20 | 85709 | 101478
4 | 22:33.04 | 6:41.08 | 101479 | 131561
5 | 29:14.12 | 8:39.74 | 131562 | 170560
6 | 37:54.11 | 9:36.25 | 170561 | 213785
7 | 47:30.36 | 2:45.51 | 213786 | 226211
Range status and errors
Selected range
Filename K:\ЕАС\Last Seen Headed - Live at Sons D'Hiver.wav
Peak level 100.0 %
Extraction speed 1.8 X
Range quality 99.9 %
Test CRC A7FB0C1E
Copy CRC A7FB0C1E
Copy OK
No errors occurred
AccurateRip summary
Track 1 not present in database
Track 2 not present in database
Track 3 not present in database
Track 4 not present in database
Track 5 not present in database
Track 6 not present in database
Track 7 not present in database
None of the tracks are present in the AccurateRip database
End of status report
==== Log checksum DE16100A1AAD2A8361E7C890241E2D5331EC1EC66DC21CC49D94888AF01DB42E ====
 
Содержание индексной карты (.CUE)
REM GENRE Avantgarde
REM DATE 2010
REM DISCID 620BC807
REM COMMENT "ExactAudioCopy v1.0b2"
PERFORMER "Last Seen Headed"
TITLE "Live at Sons D'Hiver"
FILE "Last Seen Headed - Live at Sons D'Hiver.flac" WAVE
TRACK 01 AUDIO
TITLE "Last Seen Headed I"
PERFORMER "Last Seen Headed"
ISRC 000000000000
INDEX 01 00:00:00
TRACK 02 AUDIO
TITLE "Last Seen Headed II"
PERFORMER "Last Seen Headed"
ISRC 000000000000
INDEX 01 08:14:59
TRACK 03 AUDIO
TITLE "Last Seen Headed III"
PERFORMER "Last Seen Headed"
ISRC 000000000000
INDEX 01 19:02:59
TRACK 04 AUDIO
TITLE "Last Seen Headed IV"
PERFORMER "Last Seen Headed"
ISRC 000000000000
INDEX 01 22:33:04
TRACK 05 AUDIO
TITLE "Last Seen Headed V"
PERFORMER "Last Seen Headed"
ISRC 000000000000
INDEX 01 29:14:12
TRACK 06 AUDIO
TITLE "Last Seen Headed VI"
PERFORMER "Last Seen Headed"
ISRC 000000000000
INDEX 01 37:54:11
TRACK 07 AUDIO
TITLE "Last Seen Headed VII"
PERFORMER "Last Seen Headed"
ISRC 000000000000
INDEX 01 47:30:36
Доп. информация: Recorded on 24 January 2009 at Centre Culturel Andre Malraux, Le Kremlin-Bicetre, France
 
Состав
Bass – Joelle Leandre
Clarinet – Francois Houle
Percussion – Raymond Strid
Any questions -> support@pro-jazz.com. По всем вопросам пишите -> support@pro-jazz.com
04:01
155
Нет комментариев. Ваш будет первым!