Вы используете незарегистрированную версию компонента "Вкладки"!

Поиск

(Free Jazz) Frank Lowe Quartet - Tricks Of The Trade - 1976, FLAC (tracks+.cue), lossless

(Free Jazz) Frank Lowe Quartet - Tricks Of The Trade - 1976, FLAC (tracks+.cue), lossless
Треклист:
Frank Lowe Quartet / Tricks Of The Trade
Жанр: Free Jazz
Страна-производитель диска: France
Год издания: 1976
Издатель (лейбл): Marge
Номер по каталогу: 02
Страна: 1976
Аудиокодек: FLAC (*.flac)
Тип рипа: tracks+.cue
Битрейт аудио: lossless
Продолжительность: 78:57
Источник (релизер): whatcd
Наличие сканов в содержимом раздачи: нет
Треклист:
1.Groove (Lowe) 10:11
2.Fresh (Lowe) 9:50
3.Awake (Lowe) 11:23
4.In a Minute (Lowe) 9:40
5.Flash Back (Lowe) 1:13
6.Navarro's Tomorrow (Lowe) 10:16
7.Anytime (Lowe) 6:05
8.A Ballad (Lowe) 5:26
9.Clear (Lowe) 5:02
10.Unsatisfied Blues (Lowe) 5:22
11.And Then (Lowe) 2:30
 
Лог создания рипа
EAC extraction logfile from 21. April 2007, 18:45 for CD
Frank Lowe / Tricks of the trade
Used drive : _NEC DVD_RW ND-3520A Adapter: 1 ID: 0
Read mode : Secure with C2, accurate stream, NO disable cache
Combined read/write offset correction : 0
Overread into Lead-In and Lead-Out : No
Used output format : Internal WAV Routines
44.100 Hz; 16 Bit; Stereo
Other options :
Fill up missing offset samples with silence : Yes
Delete leading and trailing silent blocks : No
Installed external ASPI interface
Track 1
Filename D:\Uploads\Frank Lowe - Tricks Of The Trade\Groove.wav
Peak level 94.5 %
Track quality 100.0 %
Copy CRC 7F45562A
Copy OK
Track 2
Filename D:\Uploads\Frank Lowe - Tricks Of The Trade\Fresh.wav
Peak level 94.4 %
Track quality 100.0 %
Copy CRC E0847C91
Copy OK
Track 3
Filename D:\Uploads\Frank Lowe - Tricks Of The Trade\Awake.wav
Peak level 97.6 %
Track quality 100.0 %
Copy CRC 5FA33BDF
Copy OK
Track 4
Filename D:\Uploads\Frank Lowe - Tricks Of The Trade\In a minute.wav
Peak level 92.4 %
Track quality 100.0 %
Copy CRC F3693E40
Copy OK
Track 5
Filename D:\Uploads\Frank Lowe - Tricks Of The Trade\Flash back.wav
Peak level 85.0 %
Track quality 100.0 %
Copy CRC E2ACFD7D
Copy OK
Track 6
Filename D:\Uploads\Frank Lowe - Tricks Of The Trade\Navarro's Tomorrow.wav
Peak level 93.7 %
Track quality 100.0 %
Copy CRC B3597451
Copy OK
Track 7
Filename D:\Uploads\Frank Lowe - Tricks Of The Trade\Anytime.wav
Peak level 88.3 %
Track quality 100.0 %
Copy CRC B86DF92C
Copy OK
Track 8
Filename D:\Uploads\Frank Lowe - Tricks Of The Trade\A ballad.wav
Peak level 83.8 %
Track quality 99.9 %
Copy CRC 5B4A29E9
Copy OK
Track 9
Filename D:\Uploads\Frank Lowe - Tricks Of The Trade\Clear.wav
Peak level 85.7 %
Track quality 100.0 %
Copy CRC 19BA3D21
Copy OK
Track 10
Filename D:\Uploads\Frank Lowe - Tricks Of The Trade\Unsatisfied blues.wav
Peak level 93.2 %
Track quality 100.0 %
Copy CRC AD61326D
Copy OK
Track 11
Filename D:\Uploads\Frank Lowe - Tricks Of The Trade\And then.wav
Peak level 94.3 %
Track quality 99.4 %
Copy CRC 006BEB29
Copy OK
No errors occured
End of status report
 
Содержание индексной карты (.CUE)
REM GENRE Jazz
REM DATE 1976
REM DISCID 9512810B
REM COMMENT "ExactAudioCopy v0.95b4"
PERFORMER "Frank Lowe"
TITLE "Tricks of the trade"
FILE "Groove.wav" WAVE
TRACK 01 AUDIO
TITLE "Groove"
PERFORMER "Frank Lowe"
FLAGS DCP
INDEX 01 00:00:00
FILE "Fresh.wav" WAVE
TRACK 02 AUDIO
TITLE "Fresh"
PERFORMER "Frank Lowe"
FLAGS DCP
INDEX 01 00:00:00
FILE "Awake.wav" WAVE
TRACK 03 AUDIO
TITLE "Awake"
PERFORMER "Frank Lowe"
FLAGS DCP
INDEX 01 00:00:00
FILE "In a minute.wav" WAVE
TRACK 04 AUDIO
TITLE "In a minute"
PERFORMER "Frank Lowe"
FLAGS DCP
INDEX 01 00:00:00
FILE "Flash back.wav" WAVE
TRACK 05 AUDIO
TITLE "Flash back"
PERFORMER "Frank Lowe"
FLAGS DCP
INDEX 01 00:00:00
FILE "Navarro's Tomorrow.wav" WAVE
TRACK 06 AUDIO
TITLE "Navarro's Tomorrow"
PERFORMER "Frank Lowe"
FLAGS DCP
INDEX 01 00:00:00
FILE "Anytime.wav" WAVE
TRACK 07 AUDIO
TITLE "Anytime"
PERFORMER "Frank Lowe"
FLAGS DCP
INDEX 01 00:00:00
FILE "A ballad.wav" WAVE
TRACK 08 AUDIO
TITLE "A ballad"
PERFORMER "Frank Lowe"
FLAGS DCP
INDEX 01 00:00:00
FILE "Clear.wav" WAVE
TRACK 09 AUDIO
TITLE "Clear"
PERFORMER "Frank Lowe"
FLAGS DCP
INDEX 01 00:00:00
FILE "Unsatisfied blues.wav" WAVE
TRACK 10 AUDIO
TITLE "Unsatisfied blues"
PERFORMER "Frank Lowe"
FLAGS DCP
INDEX 01 00:00:00
FILE "And then.wav" WAVE
TRACK 11 AUDIO
TITLE "And then"
PERFORMER "Frank Lowe"
FLAGS DCP
INDEX 01 00:00:00
Доп. информация: Enregistre en public a Rouen Salle Sainte-Croix des Pelletiers le mercredi 8 decembre 1976.
 
Состав
Bass – Didier Levallet
Cornet – Lawrence "Butch" Morris
Drums – George Brown
Tenor Saxophone, Composed By – Frank Lowe
Any questions -> support@pro-jazz.com. По всем вопросам пишите -> support@pro-jazz.com
04:00
168
Нет комментариев. Ваш будет первым!