Вы используете незарегистрированную версию компонента "Вкладки"!

Поиск

(free jazz) Rashied Ali Quartet and Quintet - Moon Flight 1974 , FLAC (tracks+.cue), lossless

(free jazz) Rashied Ali Quartet and Quintet - Moon Flight 1974 , FLAC (tracks+.cue), lossless
Треклист:


Rashied Ali Quartet and Quintet - Moon Flight 1974

Жанр: free jazz
Год выпуска: 1974
Издатель (лейбл):1999, Knit Classics / Survival Records / KCR-3023 / Survival Series Remaster
Формат: FLAC (tracks+.cue)
Битрейт аудио: lossless
Продолжительность 42`48
Источник: what.cd

tracks

1 Blood On The Cross
2 Soul Eyes
3 Moon Flight
4 A Light
5 Naima
6 Face Of Forgotten Thought


 
.log
X Lossless Decoder version 20100123 (115.4)
XLD extraction logfile from 2010-02-04 00:43:03 -0800
Rashied Ali Quartet and Quintet / Moon Flight
Used drive : OPTIARC DVD RW AD-5680H (revision 3AHB)
Use cdparanoia mode : YES (CDParanoia III 10.2 engine)
Disable audio cache : OK for the drive with cache less than 2750KB
Make use of C2 pointers : NO
Read offset correction : 48
Max retry count : 100
TOC of the extracted CD
Track | Start | Length | Start sector | End sector
---------------------------------------------------------
1 | 00:00:00 | 07:09:39 | 0 | 32213
2 | 07:09:39 | 09:19:61 | 32214 | 74199
3 | 16:29:25 | 05:14:34 | 74200 | 97783
4 | 21:43:59 | 08:02:68 | 97784 | 134001
5 | 29:46:52 | 06:47:40 | 134002 | 164566
6 | 36:34:17 | 06:14:09 | 164567 | 192625
Track 01
Filename : /Users/micahgilbert/Music/iTunes/iTunes Media/Music/Rashied Ali/Quartet and Quintet - Moon Flight/01 - Blood On The Cross.flac
Pre-gap length : 00:02:00
CRC32 hash (test run) : EF56309E
CRC32 hash : EF56309E
CRC32 hash (skip zero) : D4BDAE62
AccurateRip signature : 7BAF0A9E
->Track not present in AccurateRip database.
Statistics
Read error : 0
Skipped (treated as error) : 0
Edge jitter error (maybe fixed) : 0
Atom jitter error (maybe fixed) : 0
Drift error (maybe fixed) : 0
Dropped bytes error (maybe fixed) : 0
Duplicated bytes error (maybe fixed) : 0
Inconsistency in error sectors : 0
Track 02
Filename : /Users/micahgilbert/Music/iTunes/iTunes Media/Music/Rashied Ali/Quartet and Quintet - Moon Flight/02 - Soul Eyes.flac
CRC32 hash (test run) : C9C7B559
CRC32 hash : C9C7B559
CRC32 hash (skip zero) : 6D215E63
AccurateRip signature : B6CC8C90
->Track not present in AccurateRip database.
Statistics
Read error : 0
Skipped (treated as error) : 0
Edge jitter error (maybe fixed) : 0
Atom jitter error (maybe fixed) : 0
Drift error (maybe fixed) : 0
Dropped bytes error (maybe fixed) : 0
Duplicated bytes error (maybe fixed) : 0
Inconsistency in error sectors : 0
Track 03
Filename : /Users/micahgilbert/Music/iTunes/iTunes Media/Music/Rashied Ali/Quartet and Quintet - Moon Flight/03 - Moon Flight.flac
CRC32 hash (test run) : 670C2F2B
CRC32 hash : 670C2F2B
CRC32 hash (skip zero) : 39B04224
AccurateRip signature : A9C2C8C3
->Track not present in AccurateRip database.
Statistics
Read error : 0
Skipped (treated as error) : 0
Edge jitter error (maybe fixed) : 0
Atom jitter error (maybe fixed) : 0
Drift error (maybe fixed) : 0
Dropped bytes error (maybe fixed) : 0
Duplicated bytes error (maybe fixed) : 0
Inconsistency in error sectors : 0
Track 04
Filename : /Users/micahgilbert/Music/iTunes/iTunes Media/Music/Rashied Ali/Quartet and Quintet - Moon Flight/04 - A Light.flac
CRC32 hash (test run) : 1DDBAEC0
CRC32 hash : 1DDBAEC0
CRC32 hash (skip zero) : 3FFB75E4
AccurateRip signature : A5226BA0
->Track not present in AccurateRip database.
Statistics
Read error : 0
Skipped (treated as error) : 0
Edge jitter error (maybe fixed) : 0
Atom jitter error (maybe fixed) : 0
Drift error (maybe fixed) : 0
Dropped bytes error (maybe fixed) : 0
Duplicated bytes error (maybe fixed) : 0
Inconsistency in error sectors : 0
Track 05
Filename : /Users/micahgilbert/Music/iTunes/iTunes Media/Music/Rashied Ali/Quartet and Quintet - Moon Flight/05 - Naima.flac
CRC32 hash (test run) : 6D081A1B
CRC32 hash : 6D081A1B
CRC32 hash (skip zero) : 6ED26181
AccurateRip signature : 04E7C6A5
->Track not present in AccurateRip database.
Statistics
Read error : 0
Skipped (treated as error) : 0
Edge jitter error (maybe fixed) : 1
Atom jitter error (maybe fixed) : 0
Drift error (maybe fixed) : 0
Dropped bytes error (maybe fixed) : 0
Duplicated bytes error (maybe fixed) : 1
Inconsistency in error sectors : 0
Track 06
Filename : /Users/micahgilbert/Music/iTunes/iTunes Media/Music/Rashied Ali/Quartet and Quintet - Moon Flight/06 - Face Of Forgotten Thought.flac
CRC32 hash (test run) : 7AD4EC13
CRC32 hash : 7AD4EC13
CRC32 hash (skip zero) : 82F53D32
AccurateRip signature : E42819DE
->Track not present in AccurateRip database.
Statistics
Read error : 0
Skipped (treated as error) : 0
Edge jitter error (maybe fixed) : 0
Atom jitter error (maybe fixed) : 0
Drift error (maybe fixed) : 0
Dropped bytes error (maybe fixed) : 0
Duplicated bytes error (maybe fixed) : 0
Inconsistency in error sectors : 0
No errors occurred
End of status report
 
.cue
TITLE "Moon Flight"
PERFORMER "Rashied Ali Quartet and Quintet"
REM GENRE "Jazz"
REM DATE 1974
FILE "01 - Blood On The Cross.wav" WAVE
TRACK 01 AUDIO
TITLE "Blood On The Cross"
INDEX 01 00:00:00
FILE "02 - Soul Eyes.wav" WAVE
TRACK 02 AUDIO
TITLE "Soul Eyes"
INDEX 01 00:00:00
FILE "03 - Moon Flight.wav" WAVE
TRACK 03 AUDIO
TITLE "Moon Flight"
INDEX 01 00:00:00
FILE "04 - A Light.wav" WAVE
TRACK 04 AUDIO
TITLE "A Light"
INDEX 01 00:00:00
FILE "05 - Naima.wav" WAVE
TRACK 05 AUDIO
TITLE "Naima"
INDEX 01 00:00:00
FILE "06 - Face Of Forgotten Thought.wav" WAVE
TRACK 06 AUDIO
TITLE "Face Of Forgotten Thought"
INDEX 01 00:00:00

другие релизы
Any questions -> support@pro-jazz.com. По всем вопросам пишите -> support@pro-jazz.com
04:01
206
Нет комментариев. Ваш будет первым!