Вы используете незарегистрированную версию компонента "Вкладки"!

Поиск

(Free Improvisation) Julien Pinol - Seul Emoi - 1996, FLAC (tracks+.cue), lossless

(Free Improvisation) Julien Pinol - Seul Emoi - 1996, FLAC (tracks+.cue), lossless
Треклист:
Julien Pinol / Seul Émoi
Жанр: Free Improvisation
Страна-производитель диска: Switzerland
Год издания: 1996
Издатель (лейбл): Growing Records
Номер по каталогу: gro 3374
Аудиокодек: FLAC (*.flac)
Тип рипа: tracks+.cue
Битрейт аудио: lossless
Продолжительность: 48:43
Источник (релизер): Max Monteiro
Наличие сканов в содержимом раздачи: нет
Треклист:
01. Lili (Julien Pinol) 3:47
02. Lonely Woman (Horace Silver) 2:27
03. Caravan the Mooche (Edward K. Ellington) 3:03
04. Gevrey Chambertin (Julien Pinol) 6:05
05. Harlem Nocturne (Earl Hagen) 4:12
06. Et flatte (Julien Pinol) 4:12
07. Archie (Julien Pinol) 3:02
08. Blue in Green (Bill Evans) 1:40
09. St James Infirmary (Joe Primrose) 3:26
10. Sans yin ni yang (Julien Pinol) 2:05
11. A Peterschun (Julien Pinol) 3:09
12. Abbey (Julien Pinol) 2:43
13. Morning Song (Ornette Coleman) 2:14
14. Congeniality (Ornette Coleman) 2:11
15. Tybalt Birth (Julien Pinol) 1:31
16. She’s In (Julien Pinol) 2:59
Enregistré le 26 août 1996 à l’AMR (Genève). Aucune amplification n’a été utilisée pour la guitare (Gibson). No overdubs. Les seuls effets utilisés sur la guitare sont un trombone zingué et une épingle de sûreté.
Julien Pinol – guitare
 
Лог создания рипа
Exact Audio Copy V1.0 beta 3 from 29. August 2011
EAC extraction logfile from 17. June 2013, 15:26
Julien Pinol / Seul Émoi
Used drive : SlimtypeeNAU508 5 Adapter: 1 ID: 0
Read mode : Secure
Utilize accurate stream : Yes
Defeat audio cache : Yes
Make use of C2 pointers : No
Read offset correction : 6
Overread into Lead-In and Lead-Out : No
Fill up missing offset samples with silence : Yes
Delete leading and trailing silent blocks : No
Null samples used in CRC calculations : Yes
Used interface : Native Win32 interface for Win NT & 2000
Gap handling : Appended to previous track
Used output format : User Defined Encoder
Selected bitrate : 768 kBit/s
Quality : High
Add ID3 tag : No
Command line compressor : C:\Program Files (x86)\Exact Audio Copy\Flac\flac.exe
Additional command line options : -8 -V -T "ARTIST=%artist%" -T "TITLE=%title%" -T "ALBUM=%albumtitle%" -T "DATE=%year%" -T "TRACKNUMBER=%tracknr%" -T "GENRE=%genre%" -T "PERFORMER=%albuminterpret%" -T "COMPOSER=%composer%" %haslyrics%--tag-from-file=LYRICS="%lyricsfile%"%haslyrics% -T "ALBUMARTIST=%albumartist%" -T "DISCNUMBER=%cdnumber%" -T "TOTALDISCS=%totalcds%" -T "TOTALTRACKS=%numtracks%" -T "COMMENT=%comment%" %source% -o %dest%
TOC of the extracted CD
Track | Start | Length | Start sector | End sector
---------------------------------------------------------
1 | 0:00.00 | 3:46.73 | 0 | 17022
2 | 3:46.73 | 2:26.56 | 17023 | 28028
3 | 6:13.54 | 3:03.24 | 28029 | 41777
4 | 9:17.03 | 6:04.40 | 41778 | 69117
5 | 15:21.43 | 4:11.59 | 69118 | 88001
6 | 19:33.27 | 4:11.66 | 88002 | 106892
7 | 23:45.18 | 3:01.47 | 106893 | 120514
8 | 26:46.65 | 1:39.41 | 120515 | 127980
9 | 28:26.31 | 3:26.09 | 127981 | 143439
10 | 31:52.40 | 2:04.68 | 143440 | 152807
11 | 33:57.33 | 3:08.59 | 152808 | 166966
12 | 37:06.17 | 2:42.69 | 166967 | 179185
13 | 39:49.11 | 2:13.45 | 179186 | 189205
14 | 42:02.56 | 2:11.21 | 189206 | 199051
15 | 44:14.02 | 1:30.48 | 199052 | 205849
16 | 45:44.50 | 2:58.40 | 205850 | 219239
Track 1
Filename C:\EAC rips\01 - Lili.wav
Pre-gap length 0:00:02.00
Peak level 100.0 %
Extraction speed 1.0 X
Track quality 100.0 %
Test CRC 648AE0C9
Copy CRC 648AE0C9
Track not present in AccurateRip database
Copy OK
Track 2
Filename C:\EAC rips\02 - Lonley Woman.wav
Pre-gap length 0:00:01.74
Peak level 100.0 %
Extraction speed 0.9 X
Track quality 99.9 %
Test CRC D87DD86D
Copy CRC D87DD86D
Track not present in AccurateRip database
Copy OK
Track 3
Filename C:\EAC rips\03 - Caravan the Mooche.wav
Pre-gap length 0:00:01.74
Peak level 72.7 %
Extraction speed 1.2 X
Track quality 100.0 %
Test CRC 748EDFDD
Copy CRC 748EDFDD
Track not present in AccurateRip database
Copy OK
Track 4
Filename C:\EAC rips\04 - Gevrey Chambertin.wav
Pre-gap length 0:00:01.74
Peak level 100.0 %
Extraction speed 1.3 X
Track quality 99.9 %
Test CRC ACE978FE
Copy CRC ACE978FE
Track not present in AccurateRip database
Copy OK
Track 5
Filename C:\EAC rips\05 - Harlem Nocturne.wav
Pre-gap length 0:00:01.74
Peak level 100.0 %
Extraction speed 1.5 X
Track quality 100.0 %
Test CRC 1A1A4091
Copy CRC 1A1A4091
Track not present in AccurateRip database
Copy OK
Track 6
Filename C:\EAC rips\06 - Et flatte.wav
Pre-gap length 0:00:01.74
Peak level 100.0 %
Extraction speed 1.6 X
Track quality 100.0 %
Test CRC 075C5AF2
Copy CRC 075C5AF2
Track not present in AccurateRip database
Copy OK
Track 7
Filename C:\EAC rips\07 - Archie.wav
Pre-gap length 0:00:01.74
Peak level 100.0 %
Extraction speed 1.5 X
Track quality 100.0 %
Test CRC 8EDD6957
Copy CRC 8EDD6957
Track not present in AccurateRip database
Copy OK
Track 8
Filename C:\EAC rips\08 - Blue in Green.wav
Pre-gap length 0:00:01.74
Peak level 100.0 %
Extraction speed 1.4 X
Track quality 100.0 %
Test CRC 9573E4EC
Copy CRC 9573E4EC
Track not present in AccurateRip database
Copy OK
Track 9
Filename C:\EAC rips\09 - St James Infirmary.wav
Pre-gap length 0:00:01.74
Peak level 25.0 %
Extraction speed 1.7 X
Track quality 100.0 %
Test CRC E641A8C2
Copy CRC E641A8C2
Track not present in AccurateRip database
Copy OK
Track 10
Filename C:\EAC rips\10 - Sans yin ni yang.wav
Pre-gap length 0:00:01.74
Peak level 100.0 %
Extraction speed 1.6 X
Track quality 100.0 %
Test CRC 164F026F
Copy CRC 164F026F
Track not present in AccurateRip database
Copy OK
Track 11
Filename C:\EAC rips\11 - A Peterschun.wav
Pre-gap length 0:00:01.74
Peak level 78.4 %
Extraction speed 1.7 X
Track quality 100.0 %
Test CRC A09374CB
Copy CRC A09374CB
Track not present in AccurateRip database
Copy OK
Track 12
Filename C:\EAC rips\12 - Abbey.wav
Pre-gap length 0:00:01.74
Peak level 87.4 %
Extraction speed 1.7 X
Track quality 100.0 %
Test CRC 1910F7EA
Copy CRC 1910F7EA
Track not present in AccurateRip database
Copy OK
Track 13
Filename C:\EAC rips\13 - Morning Song.wav
Pre-gap length 0:00:01.74
Peak level 100.0 %
Extraction speed 1.7 X
Track quality 100.0 %
Test CRC 59B4E0A9
Copy CRC 59B4E0A9
Track not present in AccurateRip database
Copy OK
Track 14
Filename C:\EAC rips\14 - Congeniality.wav
Pre-gap length 0:00:01.74
Peak level 89.0 %
Extraction speed 1.7 X
Track quality 100.0 %
Test CRC 311017FD
Copy CRC 311017FD
Track not present in AccurateRip database
Copy OK
Track 15
Filename C:\EAC rips\15 - Tybalt Birth.wav
Pre-gap length 0:00:01.74
Peak level 63.4 %
Extraction speed 1.2 X
Track quality 99.8 %
Test CRC CB18D6E2
Copy CRC CB18D6E2
Track not present in AccurateRip database
Copy OK
Track 16
Filename C:\EAC rips\16 - She's In.wav
Pre-gap length 0:00:01.74
Peak level 99.7 %
Extraction speed 1.9 X
Track quality 100.0 %
Test CRC BA843270
Copy CRC BA843270
Track not present in AccurateRip database
Copy OK
None of the tracks are present in the AccurateRip database
No errors occurred
End of status report
---- CUETools DB Plugin V2.1.4
[CTDB TOCID: 6pa5n.dkl.SJzA0Xrfkxiic5wpk-] disk not present in database
Submit result: 6pa5n.dkl.SJzA0Xrfkxiic5wpk- has been uploaded
==== Log checksum DB8AD5C1A9CB0B925195D68FFADE95268A822107071D36C66E3862E998E79805 ====
 
Содержание индексной карты (.CUE)
REM GENRE Jazz
REM DATE 1996
REM DISCID E60B6B10
REM COMMENT "ExactAudioCopy v1.0b3"
PERFORMER "Julien Pinol"
TITLE "Seul Émoi"
FILE "01 - Lili.wav" WAVE
TRACK 01 AUDIO
TITLE "Lili"
PERFORMER "Julien Pinol"
INDEX 01 00:00:00
TRACK 02 AUDIO
TITLE "Lonely Woman"
PERFORMER "Julien Pinol"
INDEX 00 03:44:74
FILE "02 - Lonely Woman.wav" WAVE
INDEX 01 00:00:00
TRACK 03 AUDIO
TITLE "Caravan the Mooche"
PERFORMER "Julien Pinol"
INDEX 00 02:24:57
FILE "03 - Caravan the Mooche.wav" WAVE
INDEX 01 00:00:00
TRACK 04 AUDIO
TITLE "Gevrey Chambertin"
PERFORMER "Julien Pinol"
INDEX 00 03:01:25
FILE "04 - Gevrey Chambertin.wav" WAVE
INDEX 01 00:00:00
TRACK 05 AUDIO
TITLE "Harlem Nocturne"
PERFORMER "Julien Pinol"
INDEX 00 06:02:41
FILE "05 - Harlem Nocturne.wav" WAVE
INDEX 01 00:00:00
TRACK 06 AUDIO
TITLE "Et flatte"
PERFORMER "Julien Pinol"
INDEX 00 04:09:60
FILE "06 - Et flatte.wav" WAVE
INDEX 01 00:00:00
TRACK 07 AUDIO
TITLE "Archie"
PERFORMER "Julien Pinol"
INDEX 00 04:09:67
FILE "07 - Archie.wav" WAVE
INDEX 01 00:00:00
TRACK 08 AUDIO
TITLE "Blue in Green"
PERFORMER "Julien Pinol"
INDEX 00 02:59:48
FILE "08 - Blue in Green.wav" WAVE
INDEX 01 00:00:00
TRACK 09 AUDIO
TITLE "St James Infirmary"
PERFORMER "Julien Pinol"
INDEX 00 01:37:42
FILE "09 - St James Infirmary.wav" WAVE
INDEX 01 00:00:00
TRACK 10 AUDIO
TITLE "Sans yin ni yang"
PERFORMER "Julien Pinol"
INDEX 00 03:24:10
FILE "10 - Sans yin ni yang.wav" WAVE
INDEX 01 00:00:00
TRACK 11 AUDIO
TITLE "A Peterschun"
PERFORMER "Julien Pinol"
INDEX 00 02:02:69
FILE "11 - A Peterschun.wav" WAVE
INDEX 01 00:00:00
TRACK 12 AUDIO
TITLE "Abbey"
PERFORMER "Julien Pinol"
INDEX 00 03:06:60
FILE "12 - Abbey.wav" WAVE
INDEX 01 00:00:00
TRACK 13 AUDIO
TITLE "Morning Song"
PERFORMER "Julien Pinol"
INDEX 00 02:40:70
FILE "13 - Morning Song.wav" WAVE
INDEX 01 00:00:00
TRACK 14 AUDIO
TITLE "Congeniality"
PERFORMER "Julien Pinol"
INDEX 00 02:11:46
FILE "14 - Congeniality.wav" WAVE
INDEX 01 00:00:00
TRACK 15 AUDIO
TITLE "Tybalt Birth"
PERFORMER "Julien Pinol"
INDEX 00 02:09:22
FILE "15 - Tybalt Birth.wav" WAVE
INDEX 01 00:00:00
TRACK 16 AUDIO
TITLE "She's In"
PERFORMER "Julien Pinol"
INDEX 00 01:28:49
FILE "16 - She's In.wav" WAVE
INDEX 01 00:00:00
Any questions -> support@pro-jazz.com. По всем вопросам пишите -> support@pro-jazz.com
15:02
157
Нет комментариев. Ваш будет первым!