Вы используете незарегистрированную версию компонента "Вкладки"!

Поиск

(Free Jazz, Avant-Garde) Lama (Susana Santos Silva, Goncalo Almeida, Greg Smith) + Chris Speed - Lamacal - 2013, FLAC (tracks+.cue), lossless

(Free Jazz, Avant-Garde) Lama (Susana Santos Silva, Goncalo Almeida, Greg Smith) + Chris Speed - Lamacal - 2013, FLAC (tracks+.cue), lossless
Треклист:
LAMA + CHRIS SPEED
LAMAÇALMusic can be deep and light: here’s an excellent example…
Жанр: Free Jazz, Avant-Garde
Страна-производитель диска Portugal
Год издания 2013
Издатель (лейбл) Clean Feed
Номер по каталогу CF275
Аудиокодек FLAC (*.flac)
Тип рипа tracks+.cue
Битрейт аудио lossless
Продолжительность 54:06
Источник (релизер) спасибо 6060842
Наличие сканов в содержимом раздачи: нет
Треклист:
1. Overture For A Wandering Fish
2. Lamaçal
3. Moby Dick
4. Cachalote
5. Pair Of Dice
6. Anémona
7. Manta
 
Лог создания рипа
X Lossless Decoder version 20130407 (143.0)
XLD extraction logfile from 2013-05-18 16:24:46 +0400
Lama, Chris Speed / Lamaçal
Used drive : HL-DT-ST DVDRW GX30N (revision RP09)
Media type : Pressed CD
Ripper mode : XLD Secure Ripper
Disable audio cache : OK for the drive with a cache less than 1375KiB
Make use of C2 pointers : NO
Read offset correction : 6
Max retry count : 20
Gap status : Analyzed, Appended
TOC of the extracted CD
Track | Start | Length | Start sector | End sector
---------------------------------------------------------
1 | 00:00:00 | 06:53:23 | 0 | 30997
2 | 06:53:23 | 08:16:24 | 30998 | 68221
3 | 15:09:47 | 09:35:00 | 68222 | 111346
4 | 24:44:47 | 08:42:46 | 111347 | 150542
5 | 33:27:18 | 06:24:47 | 150543 | 179389
6 | 39:51:65 | 06:10:35 | 179390 | 207174
7 | 46:02:25 | 08:03:26 | 207175 | 243425
AccurateRip Summary
Disc not found in AccurateRip DB.
All Tracks
Album gain : -1.79 dB
Peak : 0.988739
Statistics
Read error : 0
Jitter error (maybe fixed) : 0
Retry sector count : 0
Damaged sector count : 0
Track 01
Filename : /Users/anch/Music/FLAC/Lama, Chris Speed - 2013 - Lamaçal [FLAC]/01 - Overture for a Wandering Fish.flac
/Users/anch/Music/FLAC/Lama, Chris Speed - 2013 - Lamaçal [MP3 320]/01 - Overture for a Wandering Fish.mp3
/Users/anch/Music/FLAC/Lama, Chris Speed - 2013 - Lamaçal [MP3 V0]/01 - Overture for a Wandering Fish.mp3
Pre-gap length : 00:02:00
Track gain : -0.68 dB
Peak : 0.910217
CRC32 hash (test run) : AA184730
CRC32 hash : AA184730
CRC32 hash (skip zero) : 3254C5B4
AccurateRip v1 signature : 90FB3152
AccurateRip v2 signature : 7CCA3C3A
->Track not present in AccurateRip database.
Statistics
Read error : 0
Jitter error (maybe fixed) : 0
Retry sector count : 0
Damaged sector count : 0
Track 02
Filename : /Users/anch/Music/FLAC/Lama, Chris Speed - 2013 - Lamaçal [FLAC]/02 - Lamaçal.flac
/Users/anch/Music/FLAC/Lama, Chris Speed - 2013 - Lamaçal [MP3 320]/02 - Lamaçal.mp3
/Users/anch/Music/FLAC/Lama, Chris Speed - 2013 - Lamaçal [MP3 V0]/02 - Lamaçal.mp3
Track gain : -2.52 dB
Peak : 0.988739
CRC32 hash (test run) : 138E5CE9
CRC32 hash : 138E5CE9
CRC32 hash (skip zero) : E4B57A0C
AccurateRip v1 signature : C7754CDA
AccurateRip v2 signature : 013A2241
->Track not present in AccurateRip database.
Statistics
Read error : 0
Jitter error (maybe fixed) : 0
Retry sector count : 0
Damaged sector count : 0
Track 03
Filename : /Users/anch/Music/FLAC/Lama, Chris Speed - 2013 - Lamaçal [FLAC]/03 - Moby Dick.flac
/Users/anch/Music/FLAC/Lama, Chris Speed - 2013 - Lamaçal [MP3 320]/03 - Moby Dick.mp3
/Users/anch/Music/FLAC/Lama, Chris Speed - 2013 - Lamaçal [MP3 V0]/03 - Moby Dick.mp3
Track gain : 0.50 dB
Peak : 0.988556
CRC32 hash (test run) : 6153EFB2
CRC32 hash : 6153EFB2
CRC32 hash (skip zero) : FB513C06
AccurateRip v1 signature : DAF6EB24
AccurateRip v2 signature : C12322A1
->Track not present in AccurateRip database.
Statistics
Read error : 0
Jitter error (maybe fixed) : 0
Retry sector count : 0
Damaged sector count : 0
Track 04
Filename : /Users/anch/Music/FLAC/Lama, Chris Speed - 2013 - Lamaçal [FLAC]/04 - Cachalote.flac
/Users/anch/Music/FLAC/Lama, Chris Speed - 2013 - Lamaçal [MP3 320]/04 - Cachalote.mp3
/Users/anch/Music/FLAC/Lama, Chris Speed - 2013 - Lamaçal [MP3 V0]/04 - Cachalote.mp3
Pre-gap length : 00:02:00
Track gain : -1.88 dB
Peak : 0.988708
CRC32 hash (test run) : 9E4B40E1
CRC32 hash : 9E4B40E1
CRC32 hash (skip zero) : F28ECF9A
AccurateRip v1 signature : 84FA5D81
AccurateRip v2 signature : 222182F1
->Track not present in AccurateRip database.
Statistics
Read error : 0
Jitter error (maybe fixed) : 0
Retry sector count : 0
Damaged sector count : 0
Track 05
Filename : /Users/anch/Music/FLAC/Lama, Chris Speed - 2013 - Lamaçal [FLAC]/05 - Pair of Dice.flac
/Users/anch/Music/FLAC/Lama, Chris Speed - 2013 - Lamaçal [MP3 320]/05 - Pair of Dice.mp3
/Users/anch/Music/FLAC/Lama, Chris Speed - 2013 - Lamaçal [MP3 V0]/05 - Pair of Dice.mp3
Pre-gap length : 00:02:00
Track gain : -4.00 dB
Peak : 0.988708
CRC32 hash (test run) : 9701EDE8
CRC32 hash : 9701EDE8
CRC32 hash (skip zero) : 296F346B
AccurateRip v1 signature : 4246E187
AccurateRip v2 signature : F8639FF6
->Track not present in AccurateRip database.
Statistics
Read error : 0
Jitter error (maybe fixed) : 0
Retry sector count : 0
Damaged sector count : 0
Track 06
Filename : /Users/anch/Music/FLAC/Lama, Chris Speed - 2013 - Lamaçal [FLAC]/06 - Anémona.flac
/Users/anch/Music/FLAC/Lama, Chris Speed - 2013 - Lamaçal [MP3 320]/06 - Anémona.mp3
/Users/anch/Music/FLAC/Lama, Chris Speed - 2013 - Lamaçal [MP3 V0]/06 - Anémona.mp3
Pre-gap length : 00:03:00
Track gain : -1.51 dB
Peak : 0.988708
CRC32 hash (test run) : F6EEDB1A
CRC32 hash : F6EEDB1A
CRC32 hash (skip zero) : CB3D7139
AccurateRip v1 signature : A0949C55
AccurateRip v2 signature : 1C705A0D
->Track not present in AccurateRip database.
Statistics
Read error : 0
Jitter error (maybe fixed) : 0
Retry sector count : 0
Damaged sector count : 0
Track 07
Filename : /Users/anch/Music/FLAC/Lama, Chris Speed - 2013 - Lamaçal [FLAC]/07 - Manta.flac
/Users/anch/Music/FLAC/Lama, Chris Speed - 2013 - Lamaçal [MP3 320]/07 - Manta.mp3
/Users/anch/Music/FLAC/Lama, Chris Speed - 2013 - Lamaçal [MP3 V0]/07 - Manta.mp3
Pre-gap length : 00:03:00
Track gain : 0.18 dB
Peak : 0.988678
CRC32 hash (test run) : 5F980FBA
CRC32 hash : 5F980FBA
CRC32 hash (skip zero) : 141D8B71
AccurateRip v1 signature : C0ECE77B
AccurateRip v2 signature : 3F5688AF
->Track not present in AccurateRip database.
Statistics
Read error : 0
Jitter error (maybe fixed) : 0
Retry sector count : 0
Damaged sector count : 0
No errors occurred
End of status report
 
Содержание индексной карты (.CUE)
TITLE "Lamaçal"
PERFORMER "Lama, Chris Speed"
CATALOG 5609063002751
REM GENRE "Free Jazz"
REM DATE "2013"
REM DISCID 590CAD07
REM REPLAYGAIN_ALBUM_GAIN -1.79 dB
REM REPLAYGAIN_ALBUM_PEAK 0.988739
FILE "01 - Overture for a Wandering Fish.flac" WAVE
TRACK 01 AUDIO
TITLE "Overture for a Wandering Fish"
PERFORMER "Lama, Chris Speed"
ISRC PTNF11309027
REM COMMENT "Live at Portalegre Jazz Fest 2012"
REM REPLAYGAIN_TRACK_GAIN -0.68 dB
REM REPLAYGAIN_TRACK_PEAK 0.910217
INDEX 01 00:00:00
FILE "02 - Lamacal.flac" WAVE
TRACK 02 AUDIO
TITLE "Lamaçal"
PERFORMER "Lama, Chris Speed"
ISRC PTNF11309028
REM REPLAYGAIN_TRACK_GAIN -2.52 dB
REM REPLAYGAIN_TRACK_PEAK 0.988739
INDEX 01 00:00:00
FILE "03 - Moby Dick.flac" WAVE
TRACK 03 AUDIO
TITLE "Moby Dick"
PERFORMER "Lama, Chris Speed"
ISRC PTNF11309029
REM REPLAYGAIN_TRACK_GAIN 0.50 dB
REM REPLAYGAIN_TRACK_PEAK 0.988556
INDEX 01 00:00:00
TRACK 04 AUDIO
TITLE "Cachalote"
PERFORMER "Lama, Chris Speed"
ISRC PTNF11309030
REM REPLAYGAIN_TRACK_GAIN -1.88 dB
REM REPLAYGAIN_TRACK_PEAK 0.988708
INDEX 00 09:33:00
FILE "04 - Cachalote.flac" WAVE
INDEX 01 00:00:00
TRACK 05 AUDIO
TITLE "Pair of Dice"
PERFORMER "Lama, Chris Speed"
ISRC PTNF11309031
REM REPLAYGAIN_TRACK_GAIN -4.00 dB
REM REPLAYGAIN_TRACK_PEAK 0.988708
INDEX 00 08:40:46
FILE "05 - Pair of Dice.flac" WAVE
INDEX 01 00:00:00
TRACK 06 AUDIO
TITLE "Anémona"
PERFORMER "Lama, Chris Speed"
ISRC PTNF11309032
REM REPLAYGAIN_TRACK_GAIN -1.51 dB
REM REPLAYGAIN_TRACK_PEAK 0.988708
INDEX 00 06:21:47
FILE "06 - Anemona.flac" WAVE
INDEX 01 00:00:00
TRACK 07 AUDIO
TITLE "Manta"
PERFORMER "Lama, Chris Speed"
ISRC PTNF11309033
REM REPLAYGAIN_TRACK_GAIN 0.18 dB
REM REPLAYGAIN_TRACK_PEAK 0.988678
INDEX 00 06:07:35
FILE "07 - Manta.flac" WAVE
INDEX 01 00:00:00
 
Об альбоме
“Lama, trumpet, double bass, drums, is a young Portuguese-Canadian trio with a firm leg in Rotterdam and Porto. Lama is Susana Santos Silva, Gonçalo Almeida and Greg Smith. On Lamaçal, their second album on Clean Feed, recorded live during the Portalegre Jazz Fest, the trio features clarinetist/saxophonist Chris Speed as guest. Lama consists of three remarkable young musicians who in their own special way radiate a strong group identity. In a sovereign manner they handle a wide range of techniques and approaches well absorbed from the jazz tradition, albeit completely in the service of their own imagination and create – just like on their first album Oneiros – a fascinating sound. The collaboration with Chris Speed is the obvious extension thereof.
Whether it’s an Ornettish piece such as Pair Of Dice or the funeral march atmosphere of Manta, the continued rolling generated from the title piece Lamaçal, the whale song of Moby Dick, the beautiful melody of the Bolero-like repetitive bass motif Anemona or the beautiful handrumming of Cachalote (sperm whale) – all are convincing as a colorful oceanic whole. The sea as environment plays a prominent role in all the parts and the spirit of Ornette blows through all the pieces. The strongest of the aforementioned, Pair Of Dice, has all the qualities of Ornette’s Una Muy Bonita (1960, Change Of The Century) in it. Santos Silva’s phrasing has undeniably something of the fearless momentum of Don Cherry. Her interplay with Chris Speed is rich, sophisticated and full of productive tension.
The extraordinary quality of Lama’s music is primarily in the transitions which occur between the pieces and within the pieces: fanciful, seductive and exciting. Notably the passages in which a solo instrument takes over which either deepens the piece or guides it to another terrain. Therefore unlike classic jazz solos. Lama’s core: an engaging combination of rawness, melody and daring challenging lines, the manner in which the pleasure of playing and concentration come together.
Santos Silva plays everything that is made for trumpet, Almeida has a cool vibrating bass and expands his sound in a special way with subtle electronics. Smith, steady and firm, flexible and quick to react, does everything at the right time effortlessly. The playing of these four musicians remains amazingly grounded while simultaneously opening up new perspectives. The fascination of listening remains. Apparently they succeed what many others only try: creating fantasy worlds that appeal to people, fantasy worlds that capture our imagination and our salvation in the sea of reality. Makes one think of Josef Nadj, Vasili Kandinsky, Manoel de Oliveira and Robert Wilson. The beautiful album cover – for myself the best that I have encountered so far this year – perfectly depicts the music.
And then to realise that this all comes from mud. Lama means ‘mud’ in Portuguese. You need some guts and self-awareness necessary to take that as a starting point for a group name! The album title Lamaçal, sludge, even goes a step further. Sea, tides, swell, sludge, creation …. Santos Silva, Almeida and Smith have moulded something into a fascinating and provocative shape!” (Henning Bolte)
 
Состав

Chris Speed - tenor sax, clarinet
Susana Santos Silva - trumpet, flugelhorn
Gonçalo Almeida - double bass, effects and loops
Greg Smith - drums, electronics
На мой вкус, наверное, лучший авангардный альбом в этом году. Видео - блеск!
Any questions -> support@pro-jazz.com. По всем вопросам пишите -> support@pro-jazz.com
15:02
178
Нет комментариев. Ваш будет первым!