Вы используете незарегистрированную версию компонента "Вкладки"!

Поиск

(Free Improvisation, Unit Records) Christophe Berthet / Vinz Vonlanthen - Effet Papillon - 2002, FLAC (tracks+.cue), lossless

(Free Improvisation, Unit Records) Christophe Berthet / Vinz Vonlanthen - Effet Papillon - 2002, FLAC (tracks+.cue), lossless
Треклист:
Christophe Berthet / Vinz Vonlanthen / Effet Papillon
Жанр: Free Improvisation, Unit Records
Страна-производитель диска: Switzerland
Год издания: 2002
Издатель (лейбл): Unit Records
Номер по каталогу: UTR 4135
Аудиокодек: FLAC (*.flac)
Тип рипа: tracks+.cue
Битрейт аудио: lossless
Продолжительность: 54:31
Источник (релизер): Max Monteiro
Наличие сканов в содержимом раздачи: нет
Треклист:
01. Nyoko l’Affamé 2:28
02. Effet Papillon 6:50
03. Australian Mood 4:20
04. British 5:09
05. Abîme 5:22
06. La Longue Marche 7:54
07. Taragarh 4:58
08. Kopakabana 3:48
09. Bleu 3:30
10. Kyobo l’Intrépide 2:39
11. Onirik 4:45
12. White Spirit 2:49
Toutes les pièces sont de Christophe Berthet & Vinz Vonlanthen.
Enregistré les 20 & 21 octobre 2000.
Christophe Berthet – Saxophone Soprano & Clarinette Basse
Vinz Vonlanthen – Guitares
 
Лог создания рипа
Exact Audio Copy V1.0 beta 3 from 29. August 2011
EAC extraction logfile from 19. June 2013, 19:44
Christophe Berthet / Vinz Vonlanthen / Effet Papillon
Used drive : SlimtypeeNAU508 5 Adapter: 1 ID: 0
Read mode : Secure
Utilize accurate stream : Yes
Defeat audio cache : Yes
Make use of C2 pointers : No
Read offset correction : 6
Overread into Lead-In and Lead-Out : No
Fill up missing offset samples with silence : Yes
Delete leading and trailing silent blocks : No
Null samples used in CRC calculations : Yes
Used interface : Native Win32 interface for Win NT & 2000
Gap handling : Appended to previous track
Used output format : User Defined Encoder
Selected bitrate : 768 kBit/s
Quality : High
Add ID3 tag : No
Command line compressor : C:\Program Files (x86)\Exact Audio Copy\Flac\flac.exe
Additional command line options : -8 -V -T "ARTIST=%artist%" -T "TITLE=%title%" -T "ALBUM=%albumtitle%" -T "DATE=%year%" -T "TRACKNUMBER=%tracknr%" -T "GENRE=%genre%" -T "PERFORMER=%albuminterpret%" -T "COMPOSER=%composer%" %haslyrics%--tag-from-file=LYRICS="%lyricsfile%"%haslyrics% -T "ALBUMARTIST=%albumartist%" -T "DISCNUMBER=%cdnumber%" -T "TOTALDISCS=%totalcds%" -T "TOTALTRACKS=%numtracks%" -T "COMMENT=%comment%" %source% -o %dest%
TOC of the extracted CD
Track | Start | Length | Start sector | End sector
---------------------------------------------------------
1 | 0:00.00 | 2:27.57 | 0 | 11081
2 | 2:27.57 | 6:50.19 | 11082 | 41850
3 | 9:18.01 | 4:19.46 | 41851 | 61321
4 | 13:37.47 | 5:08.59 | 61322 | 84480
5 | 18:46.31 | 5:21.46 | 84481 | 108601
6 | 24:08.02 | 7:54.00 | 108602 | 144151
7 | 32:02.02 | 4:58.09 | 144152 | 166510
8 | 37:00.11 | 3:47.72 | 166511 | 183607
9 | 40:48.08 | 3:29.64 | 183608 | 199346
10 | 44:17.72 | 2:38.74 | 199347 | 211270
11 | 46:56.71 | 4:45.18 | 211271 | 232663
12 | 51:42.14 | 2:49.19 | 232664 | 245357
Track 1
Filename C:\EAC rips\01 - Nyoko l'Affamé.wav
Pre-gap length 0:00:02.00
Peak level 99.0 %
Extraction speed 0.9 X
Track quality 100.0 %
Test CRC C254ADB8
Copy CRC C254ADB8
Track not present in AccurateRip database
Copy OK
Track 2
Filename C:\EAC rips\02 - Effet Papillon.wav
Pre-gap length 0:00:04.36
Peak level 99.0 %
Extraction speed 1.2 X
Track quality 100.0 %
Test CRC 8F4D9FAF
Copy CRC 8F4D9FAF
Track not present in AccurateRip database
Copy OK
Track 3
Filename C:\EAC rips\03 - Australian Mood.wav
Pre-gap length 0:00:02.05
Peak level 99.0 %
Extraction speed 1.2 X
Track quality 99.9 %
Test CRC 740A1700
Copy CRC 740A1700
Track not present in AccurateRip database
Copy OK
Track 4
Filename C:\EAC rips\04 - British.wav
Pre-gap length 0:00:03.56
Peak level 99.0 %
Extraction speed 1.4 X
Track quality 100.0 %
Test CRC 07FC9492
Copy CRC 07FC9492
Track not present in AccurateRip database
Copy OK
Track 5
Filename C:\EAC rips\05 - Abîme.wav
Pre-gap length 0:00:04.13
Peak level 95.0 %
Extraction speed 1.6 X
Track quality 100.0 %
Test CRC 7B915854
Copy CRC 7B915854
Track not present in AccurateRip database
Copy OK
Track 6
Filename C:\EAC rips\06 - La Longue Marche.wav
Pre-gap length 0:00:07.04
Peak level 99.0 %
Extraction speed 1.8 X
Track quality 100.0 %
Test CRC 9C807E7C
Copy CRC 9C807E7C
Track not present in AccurateRip database
Copy OK
Track 7
Filename C:\EAC rips\07 - Taragarh.wav
Pre-gap length 0:00:06.21
Peak level 99.0 %
Extraction speed 1.6 X
Track quality 99.9 %
Test CRC 9F443C94
Copy CRC 9F443C94
Track not present in AccurateRip database
Copy OK
Track 8
Filename C:\EAC rips\08 - Kopakabana.wav
Pre-gap length 0:00:07.25
Peak level 99.0 %
Extraction speed 1.8 X
Track quality 100.0 %
Test CRC 8C46C50A
Copy CRC 8C46C50A
Track not present in AccurateRip database
Copy OK
Track 9
Filename C:\EAC rips\09 - Bleu.wav
Pre-gap length 0:00:04.42
Peak level 99.0 %
Extraction speed 1.9 X
Track quality 100.0 %
Test CRC 02B4A76E
Copy CRC 02B4A76E
Track not present in AccurateRip database
Copy OK
Track 10
Filename C:\EAC rips\10 - Kyobo l'Intrépide.wav
Pre-gap length 0:00:02.64
Peak level 92.0 %
Extraction speed 1.8 X
Track quality 100.0 %
Test CRC 5099C8B7
Copy CRC 5099C8B7
Track not present in AccurateRip database
Copy OK
Track 11
Filename C:\EAC rips\11 - Onirik.wav
Pre-gap length 0:00:06.17
Peak level 99.0 %
Extraction speed 2.1 X
Track quality 100.0 %
Test CRC 77E0641B
Copy CRC 77E0641B
Track not present in AccurateRip database
Copy OK
Track 12
Filename C:\EAC rips\12 - White Spirit.wav
Pre-gap length 0:00:06.15
Peak level 99.0 %
Extraction speed 2.0 X
Track quality 100.0 %
Test CRC D3EF9BBE
Copy CRC D3EF9BBE
Track not present in AccurateRip database
Copy OK
None of the tracks are present in the AccurateRip database
No errors occurred
End of status report
---- CUETools DB Plugin V2.1.4
[CTDB TOCID: PzkSZCEnHFPJof99cu3SVtsSEYQ-] disk not present in database
Submit result: PzkSZCEnHFPJof99cu3SVtsSEYQ- has been uploaded
==== Log checksum CBB0B8AC3C9C5DCB49793ECCD5E93FBB8BCD6E13970348D95B4A1A94B2D7CB43 ====
 
Содержание индексной карты (.CUE)
REM GENRE Jazz
REM DATE 2002
REM DISCID 970CC70C
REM COMMENT "ExactAudioCopy v1.0b3"
PERFORMER "Christophe Berthet / Vinz Vonlanthen"
TITLE "Effet Papillon"
FILE "01 - Nyoko l'Affamé.wav" WAVE
TRACK 01 AUDIO
TITLE "Nyoko l'Affamé"
PERFORMER "Christophe Berthet / Vinz Vonlanthen"
ISRC CH2170043501
FLAGS DCP
INDEX 01 00:00:00
TRACK 02 AUDIO
TITLE "Effet Papillon"
PERFORMER "Christophe Berthet / Vinz Vonlanthen"
ISRC CH2170043502
FLAGS DCP
INDEX 00 02:23:21
FILE "02 - Effet Papillon.wav" WAVE
INDEX 01 00:00:00
TRACK 03 AUDIO
TITLE "Australian Mood"
PERFORMER "Christophe Berthet / Vinz Vonlanthen"
ISRC CH2170043503
FLAGS DCP
INDEX 00 06:48:14
FILE "03 - Australian Mood.wav" WAVE
INDEX 01 00:00:00
TRACK 04 AUDIO
TITLE "British"
PERFORMER "Christophe Berthet / Vinz Vonlanthen"
ISRC CH2170043504
FLAGS DCP
INDEX 00 04:15:65
FILE "04 - British.wav" WAVE
INDEX 01 00:00:00
TRACK 05 AUDIO
TITLE "Abîme"
PERFORMER "Christophe Berthet / Vinz Vonlanthen"
ISRC CH2170043505
FLAGS DCP
INDEX 00 05:04:46
FILE "05 - Abîme.wav" WAVE
INDEX 01 00:00:00
TRACK 06 AUDIO
TITLE "La Longue Marche"
PERFORMER "Christophe Berthet / Vinz Vonlanthen"
ISRC CH2170043506
FLAGS DCP
INDEX 00 05:14:42
FILE "06 - La Longue Marche.wav" WAVE
INDEX 01 00:00:00
TRACK 07 AUDIO
TITLE "Taragarh"
PERFORMER "Christophe Berthet / Vinz Vonlanthen"
ISRC CH2170043507
FLAGS DCP
INDEX 00 07:47:54
FILE "07 - Taragarh.wav" WAVE
INDEX 01 00:00:00
TRACK 08 AUDIO
TITLE "Kopakabana"
PERFORMER "Christophe Berthet / Vinz Vonlanthen"
ISRC CH2170043508
FLAGS DCP
INDEX 00 04:50:59
FILE "08 - Kopakabana.wav" WAVE
INDEX 01 00:00:00
TRACK 09 AUDIO
TITLE "Bleu"
PERFORMER "Christophe Berthet / Vinz Vonlanthen"
ISRC CH2170043509
FLAGS DCP
INDEX 00 03:43:30
FILE "09 - Bleu.wav" WAVE
INDEX 01 00:00:00
TRACK 10 AUDIO
TITLE "Kyobo l'Intrépide"
PERFORMER "Christophe Berthet / Vinz Vonlanthen"
ISRC CH2170043510
FLAGS DCP
INDEX 00 03:27:00
FILE "10 - Kyobo l'Intrépide.wav" WAVE
INDEX 01 00:00:00
TRACK 11 AUDIO
TITLE "Onirik"
PERFORMER "Christophe Berthet / Vinz Vonlanthen"
ISRC CH2170043511
FLAGS DCP
INDEX 00 02:32:57
FILE "11 - Onirik.wav" WAVE
INDEX 01 00:00:00
TRACK 12 AUDIO
TITLE "White Spirit"
PERFORMER "Christophe Berthet / Vinz Vonlanthen"
ISRC CH2170043512
FLAGS DCP
INDEX 00 04:39:03
FILE "12 - White Spirit.wav" WAVE
INDEX 01 00:00:00
Any questions -> support@pro-jazz.com. По всем вопросам пишите -> support@pro-jazz.com
15:01
153
Нет комментариев. Ваш будет первым!