Вы используете незарегистрированную версию компонента "Вкладки"!

Поиск

(Free Improvisation) Jay Crocker - Melodies From The Outskirts - 2006, FLAC (tracks+.cue), lossless

(Free Improvisation) Jay Crocker - Melodies From The Outskirts - 2006, FLAC (tracks+.cue), lossless
Треклист:
Jay Crocker / Melodies From The Outskirts
Жанр: Free Improvisation
Страна-производитель диска: Canada
Год издания: 2006
Издатель (лейбл): Artunit Recording Kompany (Saved by Radio)
Номер по каталогу: Sbr2020
Страна: USA
Аудиокодек: FLAC (*.flac)
Тип рипа: tracks+.cue
Битрейт аудио: lossless
Продолжительность: 0:40:41
Источник (релизер): clustert
Наличие сканов в содержимом раздачи: да
Треклист:
01. Wooden Tin [0:06:17.35]
02. Eramosa Road [0:04:33.39]
03. Strong Arm Down [0:03:51.58]
04. Ice Man [0:03:26.62]
05. Dead Birds [0:04:25.37]
06. Paper Thin [0:02:57.72]
07. Somewhere Between Good & Evil [0:04:17.05]
08. Wake Up Honolulu [0:07:15.53]
09. (Untitled) [0:03:35.72]
 
Лог создания рипа
Exact Audio Copy V1.0 beta 3 from 29. August 2011
Отчёт EAC об извлечении, выполненном 27. июня 2014, 21:48
Jay Crocker / Melodies From The Outskirts
Дисковод: ASUS DRW-1814BLT Adapter: 4 ID: 0
Режим чтения : Достоверность
Использование точного потока : Да
Отключение кэша аудио : Да
Использование указателей C2 : Нет
Коррекция смещения при чтении : 6
Способность читать области Lead-in и Lead-out : Нет
Заполнение пропущенных сэмплов тишиной : Да
Удаление блоков с тишиной в начале и конце : Нет
При вычислениях CRC использовались нулевые сэмплы : Да
Интерфейс : Встроенный Win32-интерфейс для Win NT/2000
Обработка зазоров : Добавлено к предыдущему треку
Выходной формат : Пользовательский кодировщик
Выбранный битрейт : 128 kBit/s
Качество : Высокий
Добавление ID3-тега : Нет
Утилита сжатия : C:\Program Files\Exact Audio Copy\Flac\flac.exe
Дополнительные параметры : -V -8 -T "Genre=%genre%" -T "Artist=%artist%" -T "Title=%title%" -T "Album=%albumtitle%" -T "Date=%year%" -T "Tracknumber=%tracknr%" -T "Comment=EAC1.0b2 FLAC -8" %source%
TOC извлечённого CD
Трек | Старт | Длительность | Начальный сектор | Конечный сектор
---------------------------------------------------------------------
1 | 0:00.00 | 6:17.35 | 0 | 28309
2 | 6:17.35 | 4:33.39 | 28310 | 48823
3 | 10:50.74 | 3:51.58 | 48824 | 66206
4 | 14:42.57 | 3:26.62 | 66207 | 81718
5 | 18:09.44 | 4:25.37 | 81719 | 101630
6 | 22:35.06 | 2:57.72 | 101631 | 114977
7 | 25:33.03 | 4:17.05 | 114978 | 134257
8 | 29:50.08 | 7:15.53 | 134258 | 166935
9 | 37:05.61 | 3:35.72 | 166936 | 183132
Трек 1
Имя файла R:\Раздача 18\Jay Crocker - 2006 - Melodies From The Outskirts\01 Wooden Tin.wav
Длина предзазора 0:00:02.00
Пиковый уровень 98.8 %
Скорость извлечения 5.1 X
Качество трека 99.9 %
CRC теста BBB473D1
CRC копии BBB473D1
Копирование... OK
Трек 2
Имя файла R:\Раздача 18\Jay Crocker - 2006 - Melodies From The Outskirts\02 Eramosa Road.wav
Пиковый уровень 98.8 %
Скорость извлечения 5.4 X
Качество трека 99.9 %
CRC теста BF050E64
CRC копии BF050E64
Копирование... OK
Трек 3
Имя файла R:\Раздача 18\Jay Crocker - 2006 - Melodies From The Outskirts\03 Strong Arm Down.wav
Пиковый уровень 98.8 %
Скорость извлечения 6.4 X
Качество трека 100.0 %
CRC теста ADDADE24
CRC копии ADDADE24
Копирование... OK
Трек 4
Имя файла R:\Раздача 18\Jay Crocker - 2006 - Melodies From The Outskirts\04 Ice Man.wav
Пиковый уровень 97.2 %
Скорость извлечения 5.8 X
Качество трека 99.9 %
CRC теста 60DF8E68
CRC копии 60DF8E68
Копирование... OK
Трек 5
Имя файла R:\Раздача 18\Jay Crocker - 2006 - Melodies From The Outskirts\05 Dead Birds.wav
Пиковый уровень 98.8 %
Скорость извлечения 7.3 X
Качество трека 100.0 %
CRC теста C59D72D6
CRC копии C59D72D6
Копирование... OK
Трек 6
Имя файла R:\Раздача 18\Jay Crocker - 2006 - Melodies From The Outskirts\06 Paper Thin.wav
Пиковый уровень 92.1 %
Скорость извлечения 6.2 X
Качество трека 99.9 %
CRC теста 2261545A
CRC копии 2261545A
Копирование... OK
Трек 7
Имя файла R:\Раздача 18\Jay Crocker - 2006 - Melodies From The Outskirts\07 Somewhere Between Good & Evil.wav
Пиковый уровень 98.8 %
Скорость извлечения 8.0 X
Качество трека 100.0 %
CRC теста 9F6D0396
CRC копии 9F6D0396
Копирование... OK
Трек 8
Имя файла R:\Раздача 18\Jay Crocker - 2006 - Melodies From The Outskirts\08 Wake Up Honolulu.wav
Пиковый уровень 98.8 %
Скорость извлечения 8.9 X
Качество трека 100.0 %
CRC теста 9DAF585F
CRC копии 9DAF585F
Копирование... OK
Трек 9
Имя файла R:\Раздача 18\Jay Crocker - 2006 - Melodies From The Outskirts\09 (Untitled).wav
Пиковый уровень 16.3 %
Скорость извлечения 8.6 X
Качество трека 100.0 %
CRC теста 6114A06E
CRC копии 6114A06E
Копирование... OK
Ошибок не произошло
Конец отчёта
==== Контрольная сумма отчёта 56F2195C99F23C986D70B2C6DCE9A4AAE79C67F4D3AE0F45419A786B93CF5F01 ====
 
Содержание индексной карты (.CUE)
REM GENRE Jazz
REM DATE 2006
REM DISCID 7F098909
REM COMMENT "ExactAudioCopy v1.0b3"
PERFORMER "Jay Crocker"
TITLE "Melodies From The Outskirts"
FILE "01 Wooden Tin.wav" WAVE
TRACK 01 AUDIO
TITLE "Wooden Tin"
PERFORMER "Jay Crocker"
FLAGS DCP
INDEX 01 00:00:00
FILE "02 Eramosa Road.wav" WAVE
TRACK 02 AUDIO
TITLE "Eramosa Road"
PERFORMER "Jay Crocker"
FLAGS DCP
INDEX 01 00:00:00
FILE "03 Strong Arm Down.wav" WAVE
TRACK 03 AUDIO
TITLE "Strong Arm Down"
PERFORMER "Jay Crocker"
FLAGS DCP
INDEX 01 00:00:00
FILE "04 Ice Man.wav" WAVE
TRACK 04 AUDIO
TITLE "Ice Man"
PERFORMER "Jay Crocker"
FLAGS DCP
INDEX 01 00:00:00
FILE "05 Dead Birds.wav" WAVE
TRACK 05 AUDIO
TITLE "Dead Birds"
PERFORMER "Jay Crocker"
FLAGS DCP
INDEX 01 00:00:00
FILE "06 Paper Thin.wav" WAVE
TRACK 06 AUDIO
TITLE "Paper Thin"
PERFORMER "Jay Crocker"
FLAGS DCP
INDEX 01 00:00:00
FILE "07 Somewhere Between Good & Evil.wav" WAVE
TRACK 07 AUDIO
TITLE "Somewhere Between Good & Evil"
PERFORMER "Jay Crocker"
FLAGS DCP
INDEX 01 00:00:00
FILE "08 Wake Up Honolulu.wav" WAVE
TRACK 08 AUDIO
TITLE "Wake Up Honolulu"
PERFORMER "Jay Crocker"
FLAGS DCP
INDEX 01 00:00:00
FILE "09 (Untitled).wav" WAVE
TRACK 09 AUDIO
TITLE "(Untitled)"
PERFORMER "Jay Crocker"
FLAGS DCP
INDEX 01 00:00:00
По всем вопросам пишите личное сообщение пользователю M0p94ok.
03:09
195
Нет комментариев. Ваш будет первым!