Вы используете незарегистрированную версию компонента "Вкладки"!

Поиск

(Avant-Garde Jazz, Free Jazz, Post Bop) [cd] The Joe Harriott Quintet ‎– Abstract (1962), FLAC (tracks+.cue), lossless

(Avant-Garde Jazz, Free Jazz, Post Bop) [cd] The Joe Harriott Quintet ‎– Abstract (1962), FLAC (tracks+.cue), lossless
Треклист:


The Joe Harriott Quintet ‎– Abstract (1962)

Жанр: Avant-Garde Jazz, Free Jazz, Post Bop
Год выпуска: 1962
Издатель (лейбл):1998, Redial / 538 183-2
Формат: FLAC (tracks+.cue)
Битрейт аудио: lossless
Продолжительность 45`53
Источник: what.cd, mendali
Joe Harriott - alto saxophone
Shake Keane - trumpet
Pat Smythe - piano
Coleridge Goode - bass
Bobby Orr (1-4), Phil Seamen (5-8) - drums
Frank Holder - bongos (5 & 8)
Tracks 1-4 recorded May 10, 1962; tracks 5-8 recorded November 22, 1961, in London.

tracks
1. Subject 5:58
2. Shadows 5:44
3. Oleo 7:06
4. Modal 4:44
5. Tonal 5:08
6. Pictures 5:06
7. Idioms 6:26
8. Compound 5:04


 
.log
X Lossless Decoder version 20100911 (122.0)
XLD extraction logfile from 2010-09-12 02:40:01 -0400
The Joe Harriott Quintet / Abstract
Used drive : MATSHITA DVD-R UJ-857E (revision ZB0E)
Use cdparanoia mode : YES (CDParanoia III 10.2 engine)
Disable audio cache : OK for the drive with cache less than 2750KB
Make use of C2 pointers : NO
Read offset correction : 102
Max retry count : 100
Gap status : Analyzed, Appended
TOC of the extracted CD
Track | Start | Length | Start sector | End sector
---------------------------------------------------------
1 | 00:00:00 | 06:02:30 | 0 | 27179
2 | 06:02:30 | 06:00:15 | 27180 | 54194
3 | 12:02:45 | 07:10:30 | 54195 | 86474
4 | 19:13:00 | 04:48:10 | 86475 | 108084
5 | 24:01:10 | 05:09:65 | 108085 | 131324
6 | 29:11:00 | 05:08:60 | 131325 | 154484
7 | 34:19:60 | 06:28:00 | 154485 | 183584
8 | 40:47:60 | 05:04:55 | 183585 | 206439
Track 01
Filename : /Users/mendahl/Desktop/Joe Harriott - Abstract/01 - Subject.flac
Pre-gap length : 00:02:00
CRC32 hash (test run) : A6BBF1B2
CRC32 hash : A6BBF1B2
CRC32 hash (skip zero) : 9E5044EB
AccurateRip signature : AB212CDD
->Accurately ripped! (confidence 1)
Statistics
Read error : 0
Skipped (treated as error) : 0
Edge jitter error (maybe fixed) : 0
Atom jitter error (maybe fixed) : 0
Drift error (maybe fixed) : 0
Dropped bytes error (maybe fixed) : 0
Duplicated bytes error (maybe fixed) : 0
Inconsistency in error sectors : 0
Track 02
Filename : /Users/mendahl/Desktop/Joe Harriott - Abstract/02 - Shadows.flac
Pre-gap length : 00:04:05
CRC32 hash (test run) : DFE79E9C
CRC32 hash : DFE79E9C
CRC32 hash (skip zero) : AE7A2184
AccurateRip signature : D8A97EFB
->Accurately ripped! (confidence 1)
Statistics
Read error : 0
Skipped (treated as error) : 0
Edge jitter error (maybe fixed) : 0
Atom jitter error (maybe fixed) : 0
Drift error (maybe fixed) : 0
Dropped bytes error (maybe fixed) : 0
Duplicated bytes error (maybe fixed) : 0
Inconsistency in error sectors : 0
Track 03
Filename : /Users/mendahl/Desktop/Joe Harriott - Abstract/03 - Oleo.flac
Pre-gap length : 00:05:45
CRC32 hash (test run) : 3430ADA8
CRC32 hash : 3430ADA8
CRC32 hash (skip zero) : A55674FA
AccurateRip signature : 8778838F
->Accurately ripped! (confidence 1)
Statistics
Read error : 0
Skipped (treated as error) : 0
Edge jitter error (maybe fixed) : 0
Atom jitter error (maybe fixed) : 0
Drift error (maybe fixed) : 0
Dropped bytes error (maybe fixed) : 0
Duplicated bytes error (maybe fixed) : 0
Inconsistency in error sectors : 0
Track 04
Filename : /Users/mendahl/Desktop/Joe Harriott - Abstract/04 - Modal.flac
Pre-gap length : 00:03:50
CRC32 hash (test run) : 9E28EE22
CRC32 hash : 9E28EE22
CRC32 hash (skip zero) : 3823CA19
AccurateRip signature : 7F326AF3
->Accurately ripped! (confidence 1)
Statistics
Read error : 0
Skipped (treated as error) : 0
Edge jitter error (maybe fixed) : 0
Atom jitter error (maybe fixed) : 0
Drift error (maybe fixed) : 0
Dropped bytes error (maybe fixed) : 0
Duplicated bytes error (maybe fixed) : 0
Inconsistency in error sectors : 0
Track 05
Filename : /Users/mendahl/Desktop/Joe Harriott - Abstract/05 - Tonal.flac
Pre-gap length : 00:03:47
CRC32 hash (test run) : AC13F49D
CRC32 hash : AC13F49D
CRC32 hash (skip zero) : 6F2A09FB
AccurateRip signature : 40828B3D
->Accurately ripped! (confidence 1)
Statistics
Read error : 0
Skipped (treated as error) : 0
Edge jitter error (maybe fixed) : 0
Atom jitter error (maybe fixed) : 0
Drift error (maybe fixed) : 0
Dropped bytes error (maybe fixed) : 0
Duplicated bytes error (maybe fixed) : 0
Inconsistency in error sectors : 0
Track 06
Filename : /Users/mendahl/Desktop/Joe Harriott - Abstract/06 - Pictures.flac
Pre-gap length : 00:01:60
CRC32 hash (test run) : 079D2F27
CRC32 hash : 079D2F27
CRC32 hash (skip zero) : 12FAA86C
AccurateRip signature : 0FEC668A
->Accurately ripped! (confidence 1)
Statistics
Read error : 0
Skipped (treated as error) : 0
Edge jitter error (maybe fixed) : 0
Atom jitter error (maybe fixed) : 0
Drift error (maybe fixed) : 0
Dropped bytes error (maybe fixed) : 0
Duplicated bytes error (maybe fixed) : 0
Inconsistency in error sectors : 0
Track 07
Filename : /Users/mendahl/Desktop/Joe Harriott - Abstract/07 - Idioms.flac
Pre-gap length : 00:02:10
CRC32 hash (test run) : D3ED6D4E
CRC32 hash : D3ED6D4E
CRC32 hash (skip zero) : 497AE07B
AccurateRip signature : CC3CE224
->Accurately ripped! (confidence 1)
Statistics
Read error : 0
Skipped (treated as error) : 0
Edge jitter error (maybe fixed) : 0
Atom jitter error (maybe fixed) : 0
Drift error (maybe fixed) : 0
Dropped bytes error (maybe fixed) : 0
Duplicated bytes error (maybe fixed) : 0
Inconsistency in error sectors : 0
Track 08
Filename : /Users/mendahl/Desktop/Joe Harriott - Abstract/08 - Compound.flac
Pre-gap length : 00:02:00
CRC32 hash (test run) : 91F2C9E4
CRC32 hash : 91F2C9E4
CRC32 hash (skip zero) : D3F635FE
AccurateRip signature : 72D54A68
->Accurately ripped! (confidence 1)
Statistics
Read error : 0
Skipped (treated as error) : 0
Edge jitter error (maybe fixed) : 0
Atom jitter error (maybe fixed) : 0
Drift error (maybe fixed) : 0
Dropped bytes error (maybe fixed) : 0
Duplicated bytes error (maybe fixed) : 0
Inconsistency in error sectors : 0
No errors occurred
End of status report
 
.cue
REM COMMENT "CUETools generated dummy CUE sheet"
PERFORMER "The Joe Harriott Quintet"
TITLE "Abstract"
REM GENRE "Jazz"
FILE "01 - Subject.flac" WAVE
TRACK 01 AUDIO
PERFORMER "The Joe Harriott Quintet"
TITLE "Subject"
INDEX 01 00:00:00
FILE "02 - Shadows.flac" WAVE
TRACK 02 AUDIO
PERFORMER "The Joe Harriott Quintet"
TITLE "Shadows"
INDEX 01 00:00:00
FILE "03 - Oleo.flac" WAVE
TRACK 03 AUDIO
PERFORMER "The Joe Harriott Quintet"
TITLE "Oleo"
INDEX 01 00:00:00
FILE "04 - Modal.flac" WAVE
TRACK 04 AUDIO
PERFORMER "The Joe Harriott Quintet"
TITLE "Modal"
INDEX 01 00:00:00
FILE "05 - Tonal.flac" WAVE
TRACK 05 AUDIO
PERFORMER "The Joe Harriott Quintet"
TITLE "Tonal"
INDEX 01 00:00:00
FILE "06 - Pictures.flac" WAVE
TRACK 06 AUDIO
PERFORMER "The Joe Harriott Quintet"
TITLE "Pictures"
INDEX 01 00:00:00
FILE "07 - Idioms.flac" WAVE
TRACK 07 AUDIO
PERFORMER "The Joe Harriott Quintet"
TITLE "Idioms"
INDEX 01 00:00:00
FILE "08 - Compound.flac" WAVE
TRACK 08 AUDIO
PERFORMER "The Joe Harriott Quintet"
TITLE "Compound"
INDEX 01 00:00:00
 
.accurip
[CUETools log; Date: 29/06/14 08:13:56; Version: 2.1.4]
[AccurateRip ID: 000e85da-00601e78-600ac008] found.
Track [ CRC | V2 ] Status
01 [ab212cdd|66060fd2] (2+3/5) Accurately ripped
02 [d8a97efb|7756a8a0] (2+3/5) Accurately ripped
03 [8778838f|a19039d2] (2+3/5) Accurately ripped
04 [7f326af3|74cbba24] (2+3/5) Accurately ripped
05 [40828b3d|e5752a61] (2+3/5) Accurately ripped
06 [0fec668a|aba49bdf] (2+3/5) Accurately ripped
07 [cc3ce224|74b47816] (2+3/5) Accurately ripped
08 [72d54a68|80c2ee46] (2+3/5) Accurately ripped
Track Peak [ CRC32 ] [W/O NULL]
-- 98.2 [946542D8] [1A86BB0A]
01 85.2 [A6BBF1B2] [9E5044EB]
02 87.2 [DFE79E9C] [AE7A2184]
03 94.4 [3430ADA8] [A55674FA]
04 98.2 [9E28EE22] [3823CA19]
05 82.7 [AC13F49D] [6F2A09FB]
06 89.1 [079D2F27] [12FAA86C]
07 80.2 [D3ED6D4E] [497AE07B]
08 89.1 [91F2C9E4] [D3F635FE]

http://www.discogs.com/Joe-Harriott-Quintet-The-Abstract/release/785856
другие релизы
По всем вопросам пишите личное сообщение пользователю M0p94ok.
03:10
175
Нет комментариев. Ваш будет первым!