Вы используете незарегистрированную версию компонента "Вкладки"!

Поиск

(Avant-Garde Jazz, Free Improvisation) [CD] Ensemble Uncontrolled (Eduard Akulin, Christoph Gallio, Takashi Kazamaki, Kalle Laar, Mart Soo) - Links - 1997, FLAC (tracks+.cue), lossless

(Avant-Garde Jazz, Free Improvisation) [CD] Ensemble Uncontrolled (Eduard Akulin, Christoph Gallio, Takashi Kazamaki, Kalle Laar, Mart Soo) - Links - 1997, FLAC (tracks+.cue), lossless
Треклист:
Ensemble Uncontrolled / Links
Жанр: Avant-Garde Jazz, Free Improvisation
Носитель: CD
Страна-производитель диска: UK
Год издания: 1997
Издатель (лейбл): Slam Productions
Номер по каталогу: SLAMCD 507
Страна: Various
Аудиокодек: FLAC (*.flac)
Тип рипа: tracks+.cue
Битрейт аудио: lossless
Продолжительность: 55:34
Источник (релизер): свой фирменный диск
Наличие сканов в содержимом раздачи:
Треклист:
1. Triplets Holiday
2. Digital Ants
3. Wind Tells (Sometimes)
4. Restless Counterpoint
5. Fat Man
6. Conference Of The Birds
7. Electric Bebop
8. Have You Been In Tibet?
9. In A Criminal Mood
10. Above The Blue
 
Лог создания рипа
Exact Audio Copy V1.0 beta 3 from 29. August 2011
EAC extraction logfile from 6. June 2014, 20:17
Ensemble Uncontrolled / Links
Used drive : PIONEER DVD-RW DVR-115D Adapter: 0 ID: 0
Read mode : Secure
Utilize accurate stream : Yes
Defeat audio cache : Yes
Make use of C2 pointers : No
Read offset correction : 48
Overread into Lead-In and Lead-Out : No
Fill up missing offset samples with silence : Yes
Delete leading and trailing silent blocks : No
Null samples used in CRC calculations : Yes
Used interface : Installed external ASPI interface
Gap handling : Appended to previous track
Used output format : User Defined Encoder
Selected bitrate : 896 kBit/s
Quality : High
Add ID3 tag : No
Command line compressor : C:\Program Files\Exact Audio Copy\FLAC\FLAC.EXE
Additional command line options : -6 -V -T "ARTIST=%artist%" -T "TITLE=%title%" -T "ALBUM=%albumtitle%" -T "DATE=%year%" -T "TRACKNUMBER=%tracknr%" -T "GENRE=%genre%" -T "COMMENT=%comment%" -T "BAND=%albuminterpret%" -T "COMPOSER=%composer%" %haslyrics%--tag-from-file=LYRICS="%lyricsfile%"%haslyrics% -T "DISCNUMBER=%cdnumber%" -T "TOTALDISCS=%totalcds%" -T "TOTALTRACKS=%numtracks%" %hascover%--picture="%coverfile%"%hascover% %source% -o %dest%
TOC of the extracted CD
Track | Start | Length | Start sector | End sector
---------------------------------------------------------
1 | 0:00.00 | 6:29.58 | 0 | 29232
2 | 6:29.58 | 3:50.05 | 29233 | 46487
3 | 10:19.63 | 4:56.11 | 46488 | 68698
4 | 15:15.74 | 6:11.45 | 68699 | 96568
5 | 21:27.44 | 5:20.31 | 96569 | 120599
6 | 26:48.00 | 2:02.62 | 120600 | 129811
7 | 28:50.62 | 5:21.20 | 129812 | 153906
8 | 34:12.07 | 9:41.05 | 153907 | 197486
9 | 43:53.12 | 3:24.68 | 197487 | 212854
10 | 47:18.05 | 8:16.65 | 212855 | 250119
Track 1
Filename D:\zzz\01 - Triplets Holiday.wav
Pre-gap length 0:00:02.00
Peak level 86.7 %
Extraction speed 4.4 X
Track quality 99.9 %
Test CRC AA17F621
Copy CRC AA17F621
Track not present in AccurateRip database
Copy OK
Track 2
Filename D:\zzz\02 - Digital Ants.wav
Pre-gap length 0:00:02.73
Peak level 89.7 %
Extraction speed 4.4 X
Track quality 99.9 %
Test CRC 789208C0
Copy CRC 789208C0
Track not present in AccurateRip database
Copy OK
Track 3
Filename D:\zzz\03 - Wind Tells (Sometimes).wav
Pre-gap length 0:00:03.41
Peak level 87.6 %
Extraction speed 5.0 X
Track quality 99.9 %
Test CRC BED2514D
Copy CRC BED2514D
Track not present in AccurateRip database
Copy OK
Track 4
Filename D:\zzz\04 - Restless Counterpoint.wav
Pre-gap length 0:00:08.39
Peak level 92.5 %
Extraction speed 6.2 X
Track quality 100.0 %
Test CRC 380C14EB
Copy CRC 380C14EB
Track not present in AccurateRip database
Copy OK
Track 5
Filename D:\zzz\05 - Fat Man.wav
Pre-gap length 0:00:03.66
Peak level 87.8 %
Extraction speed 6.5 X
Track quality 100.0 %
Test CRC A1DE4980
Copy CRC A1DE4980
Track not present in AccurateRip database
Copy OK
Track 6
Filename D:\zzz\06 - Conference Of The Birds.wav
Pre-gap length 0:00:03.71
Peak level 54.2 %
Extraction speed 4.7 X
Track quality 99.9 %
Test CRC 80DEB8AC
Copy CRC 80DEB8AC
Track not present in AccurateRip database
Copy OK
Track 7
Filename D:\zzz\07 - Electric Bebop.wav
Pre-gap length 0:00:04.17
Peak level 90.3 %
Extraction speed 7.0 X
Track quality 100.0 %
Test CRC 9DCDD44B
Copy CRC 9DCDD44B
Track not present in AccurateRip database
Copy OK
Track 8
Filename D:\zzz\08 - Have You Been In Tibet.wav
Pre-gap length 0:00:05.10
Peak level 89.5 %
Extraction speed 7.8 X
Track quality 100.0 %
Test CRC 0B22665D
Copy CRC 0B22665D
Track not present in AccurateRip database
Copy OK
Track 9
Filename D:\zzz\09 - In A Criminal Mood.wav
Pre-gap length 0:00:07.34
Peak level 100.0 %
Extraction speed 7.4 X
Track quality 100.0 %
Test CRC 51D0E79B
Copy CRC 51D0E79B
Track not present in AccurateRip database
Copy OK
Track 10
Filename D:\zzz\10 - Above The Blue.wav
Pre-gap length 0:00:08.72
Peak level 90.1 %
Extraction speed 8.4 X
Track quality 100.0 %
Test CRC 22E85F64
Copy CRC 22E85F64
Track not present in AccurateRip database
Copy OK
None of the tracks are present in the AccurateRip database
No errors occurred
End of status report
==== Log checksum E3A812E602041AE8340C72E188051ADC9F33549D52BE987D8D4E782C35E04916 ====
 
Содержание индексной карты (.CUE)
REM GENRE "Free Improvisation"
REM DATE 1997
REM DISCID 7B0D060A
REM COMMENT "ExactAudioCopy v1.0b3"
PERFORMER "Ensemble Uncontrolled"
TITLE "Links"
FILE "01 - Triplets Holiday.wav" WAVE
TRACK 01 AUDIO
TITLE "Triplets Holiday"
PERFORMER "Ensemble Uncontrolled"
INDEX 01 00:00:00
TRACK 02 AUDIO
TITLE "Digital Ants"
PERFORMER "Ensemble Uncontrolled"
INDEX 00 06:26:60
FILE "02 - Digital Ants.wav" WAVE
INDEX 01 00:00:00
TRACK 03 AUDIO
TITLE "Wind Tells (Sometimes)"
PERFORMER "Ensemble Uncontrolled"
INDEX 00 03:46:39
FILE "03 - Wind Tells (Sometimes).wav" WAVE
INDEX 01 00:00:00
TRACK 04 AUDIO
TITLE "Restless Counterpoint"
PERFORMER "Ensemble Uncontrolled"
INDEX 00 04:47:47
FILE "04 - Restless Counterpoint.wav" WAVE
INDEX 01 00:00:00
TRACK 05 AUDIO
TITLE "Fat Man"
PERFORMER "Ensemble Uncontrolled"
INDEX 00 06:07:54
FILE "05 - Fat Man.wav" WAVE
INDEX 01 00:00:00
TRACK 06 AUDIO
TITLE "Conference Of The Birds"
PERFORMER "Ensemble Uncontrolled"
INDEX 00 05:16:35
FILE "06 - Conference Of The Birds.wav" WAVE
INDEX 01 00:00:00
TRACK 07 AUDIO
TITLE "Electric Bebop"
PERFORMER "Ensemble Uncontrolled"
INDEX 00 01:58:45
FILE "07 - Electric Bebop.wav" WAVE
INDEX 01 00:00:00
TRACK 08 AUDIO
TITLE "Have You Been In Tibet?"
PERFORMER "Ensemble Uncontrolled"
INDEX 00 05:16:10
FILE "08 - Have You Been In Tibet.wav" WAVE
INDEX 01 00:00:00
TRACK 09 AUDIO
TITLE "In A Criminal Mood"
PERFORMER "Ensemble Uncontrolled"
INDEX 00 09:33:46
FILE "09 - In A Criminal Mood.wav" WAVE
INDEX 01 00:00:00
TRACK 10 AUDIO
TITLE "Above The Blue"
PERFORMER "Ensemble Uncontrolled"
INDEX 00 03:15:71
FILE "10 - Above The Blue.wav" WAVE
INDEX 01 00:00:00
 
Лог проверки качества
d:\>d:\aucdtect -d/-m0 d:\zzz\*.wav
auCDtect: CD records authenticity detector, version 0.8.2
Copyright (c) 2004 Oleg Berngardt. All rights reserved.
Copyright (c) 2004 Alexander Djourik. All rights reserved.
------------------------------------------------------------
Processing file: [01. Triplets Holiday.wav]
------------------------------------------------------------
This track looks like CDDA with probability 100%
------------------------------------------------------------
Processing file: [02. Digital Ants.wav]
------------------------------------------------------------
This track looks like CDDA with probability 100%
------------------------------------------------------------
Processing file: [03. Wind Tells (Sometimes).wav]
------------------------------------------------------------
This track looks like CDDA with probability 100%
------------------------------------------------------------
Processing file: [04. Restless Counterpoint.wav]
------------------------------------------------------------
This track looks like CDDA with probability 100%
------------------------------------------------------------
Processing file: [05. Fat Man.wav]
------------------------------------------------------------
This track looks like CDDA with probability 100%
------------------------------------------------------------
Processing file: [06. Conference Of The Birds.wav]
------------------------------------------------------------
This track looks like CDDA with probability 100%
------------------------------------------------------------
Processing file: [07. Electric Bebop.wav]
------------------------------------------------------------
This track looks like CDDA with probability 100%
------------------------------------------------------------
Processing file: [08. Have You Been In Tibet.wav]
------------------------------------------------------------
This track looks like CDDA with probability 100%
------------------------------------------------------------
Processing file: [09. In A Criminal Mood.wav]
------------------------------------------------------------
This track looks like CDDA with probability 100%
------------------------------------------------------------
Processing file: [10. Above The Blue.wav]
------------------------------------------------------------
This track looks like CDDA with probability 100%
------------------------------------------------------------
Final Conclusion:
------------------------------------------------------------
These tracks looks like CDDA with probability 100%
Доп. информация:
 
Album Info & AMG Review
Recorded at Eesti Raadio, Tallinn, April 18th 1997 (1-4,6-8,10) and live at Minoya Hall, Osaka, October 14th 1996 (5,9)
All tracks by Akulin/Gallio/Kazamaki/Laar/Soo except 5. (Akulin/Gallio/Hoskin/Soo), 6. (Akulin/Gallio/Laar/Soo) & 9. (Akulin/Gallio/Hoskin/Laar)
Mastered by Katsumi Kawasaki
Cover photography by Augusta Laar
Cover art by Kalle Laar
Ensemble Uncontrolled's second CD came out on Slam Productions, five years after the debut Tales From the Forest on Leo Records Laboratory. It presents studio recordings from April 1997 and two live pieces from October 1996. So, on the timeline, the music is actually much closer to the first CD than to the release date of this second opus. Members of the international outfit meet sparsely, but their free improvisations still convey a strong sense of maturity. The studio tracks were recorded in Tallinn (Estonia), home of trombonist Eduard Akulin and guitarist Mart Soo. Kalle Laar (guitar), Takashi Kasamaki (percussion), and Day & Taxi saxophonist Christoph Gallio complete the lineup. Paul Hoskin adds his bass clarinet to the two live improvs. Halfway between Peter Brötzmann's tropical-heat blowing and the Spontaneous Music Ensemble's abstract restraint, the music of the Ensemble Uncontrolled embraces texture without turning its back on dynamics. Sometimes it results in a clumsy attempt at instant structured pieces ("Above the Blue"). More generally the music offers a complex, rich amalgam of ideas. The two guitars dominate the sound, establishing moods, taking up solo space, and so on. Gallio brings a more lyrical point of view, throwing lines inspired by Evan Parker. Trombone and percussion remain for the most part at the level of interesting accessories. "Wind Tells (Sometimes)," "Restless Counterpoint," and "Have You Been in Tibet?" all provide paced highlights. Links is not a groundbreaking album, but it features honest, heartfelt, and challenging improvising.
 
Состав
Eduard Akulin: trombone (Tallinn)
Christoph Gallio: alto & soprano sax (Zurich)
Takashi Kazamaki: percussion (Tokyo)
Kalle Laar: guitar & electronics (Munich)
Mart Soo: guitar (Tallinn)
Special guest: Paul Hoskin, bass-clarinet (5,9)
По всем вопросам пишите личное сообщение пользователю M0p94ok.
03:08
146
Нет комментариев. Ваш будет первым!