Поиск

(Free Jazz, Avant-Garde Jazz) [CD] Francois Houle Trio (w/ Dylan Van Der Schyff & Tony Wilson) - Schizosphere - 1994, FLAC (tracks+.cue), lossless

(Free Jazz, Avant-Garde Jazz) [CD] Francois Houle Trio (w/ Dylan Van Der Schyff & Tony Wilson) - Schizosphere - 1994, FLAC (tracks+.cue), lossless
Треклист:
Francois Houle Trio / Schizosphere
Жанр: Free Jazz, Avant-Garde Jazz
Носитель: CD
Страна-производитель диска: Canada
Год издания: 1994
Издатель (лейбл): Red Toucan
Номер по каталогу: RT 9303-2
Страна: Canada
Аудиокодек: FLAC (*.flac)
Тип рипа: tracks+.cue
Битрейт аудио: lossless
Продолжительность: 67:41
Источник (релизер): свой фирменный диск
Наличие сканов в содержимом раздачи:
Треклист:
1. Fractus 11:15
2. Lowest Note 5:52
3. Frustration 9:35
4. Contemplation 2:13
5. Persistence 3:41
6. Strange Attractors 6:25
7. Prayer (For Robin Costain) 6:05
8. For Clayoquot 9:16
9. Barscheit 7:54
10. Cantor Dust 5:26
 
Лог создания рипа
Exact Audio Copy V1.0 beta 3 from 29. August 2011
EAC extraction logfile from 5. June 2014, 23:24
Francois Houle Trio / Schizosphere
Used drive : PIONEER DVD-RW DVR-115D Adapter: 0 ID: 0
Read mode : Secure
Utilize accurate stream : Yes
Defeat audio cache : Yes
Make use of C2 pointers : No
Read offset correction : 48
Overread into Lead-In and Lead-Out : No
Fill up missing offset samples with silence : Yes
Delete leading and trailing silent blocks : No
Null samples used in CRC calculations : Yes
Used interface : Installed external ASPI interface
Gap handling : Appended to previous track
Used output format : User Defined Encoder
Selected bitrate : 896 kBit/s
Quality : High
Add ID3 tag : No
Command line compressor : C:\Program Files\Exact Audio Copy\FLAC\FLAC.EXE
Additional command line options : -6 -V -T "ARTIST=%artist%" -T "TITLE=%title%" -T "ALBUM=%albumtitle%" -T "DATE=%year%" -T "TRACKNUMBER=%tracknr%" -T "GENRE=%genre%" -T "COMMENT=%comment%" -T "BAND=%albuminterpret%" -T "COMPOSER=%composer%" %haslyrics%--tag-from-file=LYRICS="%lyricsfile%"%haslyrics% -T "DISCNUMBER=%cdnumber%" -T "TOTALDISCS=%totalcds%" -T "TOTALTRACKS=%numtracks%" %hascover%--picture="%coverfile%"%hascover% %source% -o %dest%
TOC of the extracted CD
Track | Start | Length | Start sector | End sector
---------------------------------------------------------
1 | 0:00.00 | 11:14.60 | 0 | 50609
2 | 11:14.60 | 5:51.70 | 50610 | 77004
3 | 17:06.55 | 9:35.05 | 77005 | 120134
4 | 26:41.60 | 2:12.72 | 120135 | 130106
5 | 28:54.57 | 3:40.68 | 130107 | 146674
6 | 32:35.50 | 6:25.22 | 146675 | 175571
7 | 39:00.72 | 6:04.08 | 175572 | 202879
8 | 45:05.05 | 9:16.30 | 202880 | 244609
9 | 54:21.35 | 7:54.55 | 244610 | 280214
10 | 62:16.15 | 5:25.20 | 280215 | 304609
Track 1
Filename D:\zzz\01 - Fractus.wav
Pre-gap length 0:00:02.00
Peak level 94.4 %
Extraction speed 5.2 X
Track quality 100.0 %
Test CRC 7883F579
Copy CRC 7883F579
Accurately ripped (confidence 1) [F4CF2260] (AR v2)
Copy OK
Track 2
Filename D:\zzz\02 - Lowest Note.wav
Pre-gap length 0:00:02.48
Peak level 94.4 %
Extraction speed 5.4 X
Track quality 99.9 %
Test CRC 9D78E1A6
Copy CRC 9D78E1A6
Accurately ripped (confidence 1) [926B033D] (AR v2)
Copy OK
Track 3
Filename D:\zzz\03 - Frustration.wav
Peak level 94.4 %
Extraction speed 6.7 X
Track quality 100.0 %
Test CRC 16543B40
Copy CRC 16543B40
Accurately ripped (confidence 1) [E1626510] (AR v2)
Copy OK
Track 4
Filename D:\zzz\04 - Contemplation.wav
Pre-gap length 0:00:00.24
Peak level 59.5 %
Extraction speed 6.0 X
Track quality 100.0 %
Test CRC C1064316
Copy CRC C1064316
Accurately ripped (confidence 1) [DD12DC9D] (AR v2)
Copy OK
Track 5
Filename D:\zzz\05 - Persistence.wav
Peak level 94.4 %
Extraction speed 6.7 X
Track quality 100.0 %
Test CRC B859F246
Copy CRC B859F246
Accurately ripped (confidence 1) [41728BEF] (AR v2)
Copy OK
Track 6
Filename D:\zzz\06 - Strange Attractors.wav
Peak level 94.4 %
Extraction speed 7.5 X
Track quality 100.0 %
Test CRC 93525264
Copy CRC 93525264
Accurately ripped (confidence 1) [79176EA2] (AR v2)
Copy OK
Track 7
Filename D:\zzz\07 - Prayer (For Robin Costain).wav
Pre-gap length 0:00:02.45
Peak level 86.3 %
Extraction speed 7.8 X
Track quality 100.0 %
Test CRC 749FDEDD
Copy CRC 749FDEDD
Accurately ripped (confidence 1) [F8B49938] (AR v2)
Copy OK
Track 8
Filename D:\zzz\08 - For Clayoquot.wav
Pre-gap length 0:00:03.20
Peak level 94.4 %
Extraction speed 8.1 X
Track quality 99.9 %
Test CRC 1AC35784
Copy CRC 1AC35784
Accurately ripped (confidence 1) [E342A2F0] (AR v2)
Copy OK
Track 9
Filename D:\zzz\09 - Barscheit.wav
Pre-gap length 0:00:01.73
Peak level 94.4 %
Extraction speed 8.3 X
Track quality 99.9 %
Test CRC 6333F8EC
Copy CRC 6333F8EC
Accurately ripped (confidence 1) [8E1F54FD] (AR v2)
Copy OK
Track 10
Filename D:\zzz\10 - Cantor Dust.wav
Pre-gap length 0:00:02.33
Peak level 94.4 %
Extraction speed 9.0 X
Track quality 100.0 %
Test CRC 066E3D4F
Copy CRC 066E3D4F
Accurately ripped (confidence 1) [ABAD1257] (AR v2)
Copy OK
All tracks accurately ripped
No errors occurred
End of status report
==== Log checksum 19633D4131C4892314F2726E25E11F26C6BB94CC78E442D61B25E84ECA2ABD23 ====
 
Содержание индексной карты (.CUE)
REM GENRE "Contemporary Jazz"
REM DATE 1994
REM DISCID 8F0FDD0A
REM COMMENT "ExactAudioCopy v1.0b3"
PERFORMER "Francois Houle Trio"
TITLE "Schizosphere"
FILE "01 - Fractus.wav" WAVE
TRACK 01 AUDIO
TITLE "Fractus"
PERFORMER "Francois Houle Trio"
INDEX 01 00:00:00
TRACK 02 AUDIO
TITLE "Lowest Note"
PERFORMER "Francois Houle Trio"
INDEX 00 11:12:12
FILE "02 - Lowest Note.wav" WAVE
INDEX 01 00:00:00
FILE "03 - Frustration.wav" WAVE
TRACK 03 AUDIO
TITLE "Frustration"
PERFORMER "Francois Houle Trio"
INDEX 01 00:00:00
TRACK 04 AUDIO
TITLE "Contemplation"
PERFORMER "Francois Houle Trio"
INDEX 00 09:34:56
FILE "04 - Contemplation.wav" WAVE
INDEX 01 00:00:00
FILE "05 - Persistence.wav" WAVE
TRACK 05 AUDIO
TITLE "Persistence"
PERFORMER "Francois Houle Trio"
INDEX 01 00:00:00
FILE "06 - Strange Attractors.wav" WAVE
TRACK 06 AUDIO
TITLE "Strange Attractors"
PERFORMER "Francois Houle Trio"
INDEX 01 00:00:00
TRACK 07 AUDIO
TITLE "Prayer (For Robin Costain)"
PERFORMER "Francois Houle Trio"
INDEX 00 06:22:52
FILE "07 - Prayer (For Robin Costain).wav" WAVE
INDEX 01 00:00:00
TRACK 08 AUDIO
TITLE "For Clayoquot"
PERFORMER "Francois Houle Trio"
INDEX 00 06:00:63
FILE "08 - For Clayoquot.wav" WAVE
INDEX 01 00:00:00
TRACK 09 AUDIO
TITLE "Barscheit"
PERFORMER "Francois Houle Trio"
INDEX 00 09:14:32
FILE "09 - Barscheit.wav" WAVE
INDEX 01 00:00:00
TRACK 10 AUDIO
TITLE "Cantor Dust"
PERFORMER "Francois Houle Trio"
INDEX 00 07:52:22
FILE "10 - Cantor Dust.wav" WAVE
INDEX 01 00:00:00
 
Лог проверки качества
d:\>d:\aucdtect -d/-m0 d:\zzz\*.wav
auCDtect: CD records authenticity detector, version 0.8.2
Copyright (c) 2004 Oleg Berngardt. All rights reserved.
Copyright (c) 2004 Alexander Djourik. All rights reserved.
------------------------------------------------------------
Processing file: [01. Fractus.wav]
------------------------------------------------------------
This track looks like CDDA with probability 100%
------------------------------------------------------------
Processing file: [02. Lowest Note.wav]
------------------------------------------------------------
This track looks like CDDA with probability 100%
------------------------------------------------------------
Processing file: [03. Frustration.wav]
------------------------------------------------------------
This track looks like CDDA with probability 100%
------------------------------------------------------------
Processing file: [04. Contemplation.wav]
------------------------------------------------------------
This track looks like CDDA with probability 62%
------------------------------------------------------------
Processing file: [05. Persistence.wav]
------------------------------------------------------------
This track looks like CDDA with probability 100%
------------------------------------------------------------
Processing file: [06. Strange Attractors.wav]
------------------------------------------------------------
This track looks like CDDA with probability 100%
------------------------------------------------------------
Processing file: [07. Prayer (For Robin Costain).wav]
------------------------------------------------------------
This track looks like CDDA with probability 100%
------------------------------------------------------------
Processing file: [08. For Clayoquot.wav]
------------------------------------------------------------
This track looks like CDDA with probability 100%
------------------------------------------------------------
Processing file: [09. Barscheit.wav]
------------------------------------------------------------
This track looks like CDDA with probability 100%
------------------------------------------------------------
Processing file: [10. Cantor Dust.wav]
------------------------------------------------------------
This track looks like CDDA with probability 100%
------------------------------------------------------------
Final Conclusion:
------------------------------------------------------------
These tracks looks like CDDA with probability 100%
Доп. информация:
 
Album Info & AMG Review
(F. Houle) - 1,6,7,8,9
(T. Wilson) - 2
(D. Ellington) - 3
(Trio) - 4,5,10
"Live" to 2 tracks digital recording
Studio: Green House Studios, Burnaby, B.C.
Recording date: August 18, 1994
Engineer: Marc L'Esperance
Assistant engineer: Zach Blackstone
Editing: Darren Copeland and Robert Kozinuk, Western Front
Booking & management: Catriona Strang
Mastering: Bill Kipper, SNB, Montreal
Producer: Francois Houle
Executive producers: Guy Chouinard, Michel Passaretti
Liner notes (English): Kevin Whitehead, F.H.
Notes (Francais): Marc Chenard
Photos: Ekta Nadeau
Cover art: Leigh Van Der Schyff
Design: Rejean Gilbert
SPLIT (for Schizosphere)
animate rim,
enamoured scuff;
an edgy ripening - whose
fair stirring splint? - some
scumble, yeah, migrant-coursed,
ropey
bent
(Catriona Strang)
One of Vancouver clarinetist François Houle's first albums, Schizosphere features two of his earliest musical accomplices, guitarist Tony Wilson and drummer Dylan van der Schyff who was only beginning to get noticed outside of his hometown at the time. The set contains five Houle compositions, one from the guitarist, three free improvisations, and a very personal rendition of Duke Ellington's "Frustration." There is not much left of the original song: Houle focuses on a single phrase turned into an insisting circular leitmotiv. Wilson's "Lowest Note," here recorded for the first time, has a jazzier, less cluttered feel than the definitive version heard on his CD by the same title (2001, Spool). But the album's highlights are Houle's pieces, particularly "Fractus" and "Strange Attractors," both bouncing tunes relying on tutti melodies. The latter is dressed in a fancy Middle-Eastern get-up. Later a pillar of the West Coast avant-garde jazz sound, here the clarinetist limits the chances he takes, remaining for the most part in tonal, melodious jazz (as on his "Prayer"). But, coming from a classical background, he eschews the usual solo shticks and clichés, delivering a convincing performance, although he had yet to reach his prime.
 
Состав
Francois Houle: clarinet, soprano saxophone
Dylan Van Der Schyff: percussion
Tony Wilson: electric guitar, aktira, khaen
По всем вопросам пишите личное сообщение пользователю M0p94ok.
03:08
245
Нет комментариев. Ваш будет первым!