Вы используете незарегистрированную версию компонента "Вкладки"!

Поиск

(Free Improvisation, Free Jazz) Various Artists - Environ Days - 1991, FLAC (tracks+.cue), lossless

(Free Improvisation, Free Jazz) Various Artists - Environ Days - 1991, FLAC (tracks+.cue), lossless
Треклист:
Various Artists - Environ Days
Жанр: Free Improvisation, Free Jazz
Страна-производитель диска: Germany
Год издания диска: 1991
Издатель (лейбл): Konnex Records
Номер по каталогу: KCD 5024
Аудиокодек: FLAC (*.flac)
Тип рипа: tracks+.cue
Битрейт аудио: lossless
Продолжительность: 1:12:26
Источник (релизер): собственный рип с оригинального диска
Наличие сканов в содержимом раздачи: да
Треклист:
01. The Call [5:22] (Perry Robinson)
02. POUM! [6:07] (John Fischer)
03. The Flies [4:08] (John Fischer)
04. Quartet [7:12] (John Fischer)
05. Inter-Poum [8:17] (Arthur Blythe, Lester Bowie, John Fischer)
06. Trio [11:37] (Arthur Blythe, Lester Bowie, John Fischer)
07. A Touch of Strange [4:59] (Perry Robinson)
08. Polka [5:58] (John Fischer)
09. FOGGY [5:57] (John Fischer)
10. 476 [6:07] (John Fischer)
11. Free Blues Warmup [6:26] (Collective Composition)
 
Лог создания рипа
Exact Audio Copy V1.0 beta 2 from 29. April 2011
EAC extraction logfile from 23. February 2012, 22:28
Various Artists / Environ Days
Used drive : TSSTcorpCDDVDW SH-S222A Adapter: 1 ID: 0
Read mode : Secure
Utilize accurate stream : Yes
Defeat audio cache : Yes
Make use of C2 pointers : No
Read offset correction : 6
Overread into Lead-In and Lead-Out : No
Fill up missing offset samples with silence : Yes
Delete leading and trailing silent blocks : No
Null samples used in CRC calculations : Yes
Used interface : Native Win32 interface for Win NT & 2000
Gap handling : Appended to previous track
Used output format : User Defined Encoder
Selected bitrate : 896 kBit/s
Quality : High
Add ID3 tag : No
Command line compressor : C:\Tool\CD\EAC10\FLAC\FLAC.EXE
Additional command line options : -6 -V -T "ARTIST=%artist%" -T "TITLE=%title%" -T "ALBUM=%albumtitle%" -T "DATE=%year%" -T "TRACKNUMBER=%tracknr%" -T "GENRE=%genre%" -T "COMMENT=%comment%" -T "BAND=%albuminterpret%" -T "COMPOSER=%composer%" %haslyrics%--ta
TOC of the extracted CD
Track | Start | Length | Start sector | End sector
---------------------------------------------------------
1 | 0:00.00 | 5:24.42 | 0 | 24341
2 | 5:24.42 | 6:08.53 | 24342 | 51994
3 | 11:33.20 | 4:11.10 | 51995 | 70829
4 | 15:44.30 | 7:13.67 | 70830 | 103371
5 | 22:58.22 | 8:19.58 | 103372 | 140854
6 | 31:18.05 | 11:38.57 | 140855 | 193261
7 | 42:56.62 | 5:01.70 | 193262 | 215906
8 | 47:58.57 | 6:00.33 | 215907 | 242939
9 | 53:59.15 | 5:56.47 | 242940 | 269686
10 | 59:55.62 | 6:10.18 | 269687 | 297454
11 | 66:06.05 | 6:26.62 | 297455 | 326466
Track 1
Filename C:\! UPLOAD\Various Artists - Environ Days (1991) [FLAC] {Konnex}\01 - The Call.wav
Pre-gap length 0:00:02.00
Peak level 100.0 %
Extraction speed 2.1 X
Track quality 100.0 %
Test CRC 50A5415D
Copy CRC 50A5415D
Accurately ripped (confidence 1) [5CD1AA68] (AR v1)
Copy OK
Track 2
Filename C:\! UPLOAD\Various Artists - Environ Days (1991) [FLAC] {Konnex}\02 - Poum!.wav
Pre-gap length 0:00:02.50
Peak level 99.9 %
Extraction speed 2.1 X
Track quality 100.0 %
Test CRC 36157970
Copy CRC 36157970
Accurately ripped (confidence 1) [B3434469] (AR v1)
Copy OK
Track 3
Filename C:\! UPLOAD\Various Artists - Environ Days (1991) [FLAC] {Konnex}\03 - The Flies.wav
Pre-gap length 0:00:03.13
Peak level 99.9 %
Extraction speed 2.1 X
Track quality 100.0 %
Test CRC C6794A05
Copy CRC C6794A05
Cannot be verified as accurate (confidence 1) [04914AE2], AccurateRip returned [4066FE93] (AR v2)
Copy OK
Track 4
Filename C:\! UPLOAD\Various Artists - Environ Days (1991) [FLAC] {Konnex}\04 - Quartet.wav
Pre-gap length 0:00:02.50
Peak level 99.9 %
Extraction speed 2.0 X
Track quality 99.9 %
Test CRC 5F555880
Copy CRC 5F555880
Accurately ripped (confidence 1) [895F4807] (AR v1)
Copy OK
Track 5
Filename C:\! UPLOAD\Various Artists - Environ Days (1991) [FLAC] {Konnex}\05 - Inter-Poum.wav
Pre-gap length 0:00:02.25
Peak level 89.1 %
Extraction speed 2.2 X
Track quality 100.0 %
Test CRC FCA7F318
Copy CRC FCA7F318
Accurately ripped (confidence 1) [793095E4] (AR v1)
Copy OK
Track 6
Filename C:\! UPLOAD\Various Artists - Environ Days (1991) [FLAC] {Konnex}\06 - Trio.wav
Pre-gap length 0:00:02.25
Peak level 100.0 %
Extraction speed 2.2 X
Track quality 100.0 %
Test CRC BFB6386C
Copy CRC BFB6386C
Accurately ripped (confidence 1) [6431079B] (AR v1)
Copy OK
Track 7
Filename C:\! UPLOAD\Various Artists - Environ Days (1991) [FLAC] {Konnex}\07 - A Touch Of Strange.wav
Pre-gap length 0:00:02.50
Peak level 60.0 %
Extraction speed 2.1 X
Track quality 100.0 %
Test CRC EA545E6A
Copy CRC EA545E6A
Accurately ripped (confidence 1) [AF116BA0] (AR v1)
Copy OK
Track 8
Filename C:\! UPLOAD\Various Artists - Environ Days (1991) [FLAC] {Konnex}\08 - Polka.wav
Pre-gap length 0:00:02.37
Peak level 99.9 %
Extraction speed 2.1 X
Track quality 100.0 %
Test CRC 14CFA6B8
Copy CRC 14CFA6B8
Accurately ripped (confidence 1) [A97BC93F] (AR v1)
Copy OK
Track 9
Filename C:\! UPLOAD\Various Artists - Environ Days (1991) [FLAC] {Konnex}\09 - Foggy.wav
Pre-gap length 0:00:02.20
Peak level 99.9 %
Extraction speed 2.1 X
Track quality 100.0 %
Test CRC 840D46C0
Copy CRC 840D46C0
Cannot be verified as accurate (confidence 1) [1ABDF25D], AccurateRip returned [579BB6F5] (AR v2)
Copy OK
Track 10
Filename C:\! UPLOAD\Various Artists - Environ Days (1991) [FLAC] {Konnex}\10 - 476.wav
Pre-gap length 0:00:02.50
Peak level 100.0 %
Extraction speed 2.1 X
Track quality 100.0 %
Test CRC 5619211D
Copy CRC 5619211D
Accurately ripped (confidence 1) [878F87AB] (AR v1)
Copy OK
Track 11
Filename C:\! UPLOAD\Various Artists - Environ Days (1991) [FLAC] {Konnex}\11 - Free Blues Warmup.wav
Pre-gap length 0:00:03.00
Peak level 100.0 %
Extraction speed 2.1 X
Track quality 100.0 %
Test CRC FC8C8A91
Copy CRC FC8C8A91
Cannot be verified as accurate (confidence 1) [421F36DB], AccurateRip returned [BBC794E2] (AR v2)
Copy OK
8 track(s) accurately ripped
3 track(s) could not be verified as accurate
Some tracks could not be verified as accurate
No errors occurred
End of status report
---- CUETools DB Plugin V2.1.2
[CTDB TOCID: weiYEF7eBKFGwhskQ_SyWcQCTHc-] disk not present in database, Submit result: weiYEF7eBKFGwhskQ_SyWcQCTHc- has been uploaded
==== Log checksum FB7B2679C4AD30A24BAB161DDF383825A69E6A253048219919BDE0B6E51D1F90 ====
 
Содержание индексной карты (.CUE)
REM GENRE Avantgarde
REM DATE 1991
REM DISCID B511000B
REM COMMENT "ExactAudioCopy v1.0b2"
CATALOG 0000000000000
PERFORMER "Various Artists"
TITLE "Environ Days"
FILE "01 - The Call.wav" WAVE
TRACK 01 AUDIO
TITLE "The Call"
PERFORMER "Various Artists"
INDEX 01 00:00:00
TRACK 02 AUDIO
TITLE "Poum!"
PERFORMER "Various Artists"
INDEX 00 05:21:67
FILE "02 - Poum!.wav" WAVE
INDEX 01 00:00:00
TRACK 03 AUDIO
TITLE "The Flies"
PERFORMER "Various Artists"
INDEX 00 06:05:40
FILE "03 - The Flies.wav" WAVE
INDEX 01 00:00:00
TRACK 04 AUDIO
TITLE "Quartet"
PERFORMER "Various Artists"
INDEX 00 04:08:35
FILE "04 - Quartet.wav" WAVE
INDEX 01 00:00:00
TRACK 05 AUDIO
TITLE "Inter-Poum"
PERFORMER "Various Artists"
INDEX 00 07:11:42
FILE "05 - Inter-Poum.wav" WAVE
INDEX 01 00:00:00
TRACK 06 AUDIO
TITLE "Trio"
PERFORMER "Various Artists"
INDEX 00 08:17:33
FILE "06 - Trio.wav" WAVE
INDEX 01 00:00:00
TRACK 07 AUDIO
TITLE "A Touch Of Strange"
PERFORMER "Various Artists"
INDEX 00 11:36:07
FILE "07 - A Touch Of Strange.wav" WAVE
INDEX 01 00:00:00
TRACK 08 AUDIO
TITLE "Polka"
PERFORMER "Various Artists"
INDEX 00 04:59:33
FILE "08 - Polka.wav" WAVE
INDEX 01 00:00:00
TRACK 09 AUDIO
TITLE "Foggy"
PERFORMER "Various Artists"
INDEX 00 05:58:13
FILE "09 - Foggy.wav" WAVE
INDEX 01 00:00:00
TRACK 10 AUDIO
TITLE "476"
PERFORMER "Various Artists"
INDEX 00 05:53:72
FILE "10 - 476.wav" WAVE
INDEX 01 00:00:00
TRACK 11 AUDIO
TITLE "Free Blues Warmup"
PERFORMER "Various Artists"
INDEX 00 06:07:18
FILE "11 - Free Blues Warmup.wav" WAVE
INDEX 01 00:00:00
Доп. информация:
No. 2 was recorded in 1975, at 83 Leonard Street, NYC
Nos. 1,3,4,5,6,7, were recorded at the Environ Loft, NYC 1977
Nos. 8 thru 11 recorded in studio settings, 1978
 
Об альбоме (сборнике)
Environ Days is a document of compositions played by an aggressive improvising group of musicians led by John Fischer at his performance space in the mid-'70s called Environ, the first and most well known of the loft jazz scene's spaces during that magical era. Most directly collaborating with Fischer is Perry Robinson, clarinetist and vanguard jazz wildman. It was he who enlisted the others here, who include Lester Bowie, Charles Tyler, Arthur Blythe, Marion Brown, Philip Wilson, Mark Whitecage, Rick Kilburn, Thom Whaley, and Armen Halburian. Not everybody plays on every track, and there are sketchy liner notes as to who played what on which track, but the rough ideas are there, making for a charming document. Soloists are always delineated, so that makes it easier. What comes across is how truly open to suggestion this music is -- whether it's Marion Brown's solo on "Polka," informed by two different modal figures coming from Bowie and Tyler, or the changing motifs in "Foggy" and "476," where the horn section offers a wide berth to Fischer, who uses it to bring them back in, or the underpinning of percussion figures on the bassline in "Poum!," where Halburian corners Fischer's voice and extrapolates from it the sound of the drum and its voices before feeding back into the ensemble. In all cases, this is a fine snapshot of a moment in time when everything seemed possible because on the outside nothing was. Environ Days is an awesome recording that gives a deep listen to the music of the loft scene, not a glimpse of its makers. by Thom Jurek
 
Состав
Lester Bowie - trumpet
Arthur Blythe - alto sax
Mark Whitecage - alto sax
Marion Brown - alto sax
Charles Tyler - baritone sax
Perry Robinson - clarinet
John Fischer - piano
Rick Kilburn - bass
Tom Whaley - drums
Phillip Wilson - drums
Armen Halburian - percussion
Any questions -> support@pro-jazz.com. По всем вопросам пишите -> support@pro-jazz.com
22:32
153
Нет комментариев. Ваш будет первым!