Вы используете незарегистрированную версию компонента "Вкладки"!

Поиск

(Avant-Garde Jazz, Tribute) VA - Undercover Presents: The Velvet Underground & Nico - 2010, FLAC (tracks+.cue), lossless

(Avant-Garde Jazz, Tribute) VA - Undercover Presents: The Velvet Underground & Nico - 2010, FLAC (tracks+.cue), lossless
Треклист:
Undercover Presents: The Velvet Underground & Nico
Жанр: Avant-Garde Jazz, Tribute
Страна-производитель диска: USA
Год издания диска: 2010
Издатель (лейбл): Porto Franco Records
Страна: USA
Аудиокодек: FLAC (*.flac)
Тип рипа: tracks+.cue
Битрейт аудио: lossless
Продолжительность: 1:02:31
Источник (релизер): _Ivanhoe_
 
Треклист
01. Dave Mihaly and Friends - Sunday Morning
02. The Blank Tapes - I'm Waiting for the Man
03. Rupa Marya + Guests - Femme Fatale
04. Sarah Palmer and Edmund Welles - Venus in Furs
05. California Honeydrops - Run Run Run
06. Jazz Mafia feat. Crystal Monee Hall - All Tomorrow's Parties
07. Mark Matos & Os Beaches - Heroin
08. Jugtown Pirates - There She Goes Again
09. Meklit Hadero - I'll Be Your Mirror
10. Classical Revolution - The Black Angel's Death Song
11. Joe Lewis and Stephan Jenkins - European Son
 
Содержание индексной карты (.CUE)
REM GENRE Avantgarde
REM DATE 2010
REM DISCID 880EAD0B
REM COMMENT "ExactAudioCopy v1.0b3"
PERFORMER "Various"
TITLE "UnderCover Presents: The Velvet Underground and Nico"
FILE "01. Dave Mihaly and Friends - Sunday Morning.wav" WAVE
TRACK 01 AUDIO
TITLE "Sunday Morning"
PERFORMER "Dave Mihaly and Friends"
ISRC H1l7F1103401
FLAGS DCP
INDEX 01 00:00:00
FILE "02. The Blank Tapes - I'm Waiting for the Man.wav" WAVE
TRACK 02 AUDIO
TITLE "I'm Waiting for the Man"
PERFORMER "The Blank Tapes"
ISRC H1l7F1103402
FLAGS DCP
INDEX 01 00:00:00
FILE "03. Rupa Marya + Guests - Femme Fatale.wav" WAVE
TRACK 03 AUDIO
TITLE "Femme Fatale"
PERFORMER "Rupa Marya + Guests"
ISRC H1l7F1103403
FLAGS DCP
INDEX 01 00:00:00
FILE "04. Sarah Palmer and Edmund Welles - Venus in Furs.wav" WAVE
TRACK 04 AUDIO
TITLE "Venus in Furs"
PERFORMER "Sarah Palmer and Edmund Welles"
ISRC H1l7F1103404
FLAGS DCP
INDEX 01 00:00:00
FILE "05. California Honeydrops - Run Run Run.wav" WAVE
TRACK 05 AUDIO
TITLE "Run Run Run"
PERFORMER "California Honeydrops"
ISRC H1l7F1103405
FLAGS DCP
INDEX 01 00:00:00
FILE "06. Jazz Mafia feat. Crystal Monee Hall - All Tomorrow's Parties.wav" WAVE
TRACK 06 AUDIO
TITLE "All Tomorrow's Parties"
PERFORMER "Jazz Mafia feat. Crystal Monee Hall"
ISRC H1l7F1103406
FLAGS DCP
INDEX 01 00:00:00
FILE "07. Mark Matos & Os Beaches - Heroin.wav" WAVE
TRACK 07 AUDIO
TITLE "Heroin"
PERFORMER "Mark Matos & Os Beaches"
ISRC H1l7F1103407
FLAGS DCP
INDEX 01 00:00:00
FILE "08. Jugtown Pirates - There She Goes Again.wav" WAVE
TRACK 08 AUDIO
TITLE "There She Goes Again"
PERFORMER "Jugtown Pirates"
ISRC H1l7F1103408
FLAGS DCP
INDEX 01 00:00:00
FILE "09. Meklit Hadero - I'll Be Your Mirror.wav" WAVE
TRACK 09 AUDIO
TITLE "I'll Be Your Mirror"
PERFORMER "Meklit Hadero"
ISRC H1l7F1103409
FLAGS DCP
INDEX 01 00:00:00
FILE "10. Classical Revolution - The Black Angel's Death Song.wav" WAVE
TRACK 10 AUDIO
TITLE "The Black Angel's Death Song"
PERFORMER "Classical Revolution"
ISRC H1l7F1103410
FLAGS DCP
INDEX 01 00:00:00
FILE "11. Joe Lewis and Stephan Jenkins - European Son.wav" WAVE
TRACK 11 AUDIO
TITLE "European Son"
PERFORMER "Joe Lewis and Stephan Jenkins"
ISRC H1l7F1103411
FLAGS DCP
INDEX 01 00:00:00
 
Лог проверки качества
Exact Audio Copy V1.0 beta 3 from 29. August 2011
Отчёт EAC об извлечении, выполненном 12. марта 2012, 16:13
Various / UnderCover Presents: The Velvet Underground and Nico
Дисковод: TSSTcorpCDDVDW SH-S202J Adapter: 1 ID: 0
Режим чтения : Достоверность
Использование точного потока : Да
Отключение кэша аудио : Да
Использование указателей C2 : Нет
Коррекция смещения при чтении : 6
Способность читать области Lead-in и Lead-out : Нет
Заполнение пропущенных сэмплов тишиной : Да
Удаление блоков с тишиной в начале и конце : Нет
При вычислениях CRC использовались нулевые сэмплы : Да
Интерфейс : Установленный внешний ASPI-интерфейс
Обработка зазоров : Добавлено к предыдущему треку
Выходной формат : Пользовательский кодировщик
Выбранный битрейт : 128 kBit/s
Качество : Высокий
Добавление ID3-тега : Да
Утилита сжатия : C:\Program Files\Exact Audio Copy\Flac\flac.exe
Дополнительные параметры : -V -8 -T "Genre=%genre%" -T "Artist=%artist%" -T "Title=%title%" -T "Album=%albumtitle%" -T "Date=%year%" -T "Tracknumber=%tracknr%" -T "Comment=%comment%" %source%
TOC извлечённого CD
Трек | Старт | Длительность | Начальный сектор | Конечный сектор
---------------------------------------------------------------------
1 | 0:00.00 | 5:14.49 | 0 | 23598
2 | 5:14.49 | 5:32.32 | 23599 | 48530
3 | 10:47.06 | 4:25.28 | 48531 | 68433
4 | 15:12.34 | 5:17.58 | 68434 | 92266
5 | 20:30.17 | 4:30.33 | 92267 | 112549
6 | 25:00.50 | 7:17.58 | 112550 | 145382
7 | 32:18.33 | 11:16.70 | 145383 | 196152
8 | 43:35.28 | 3:21.23 | 196153 | 211250
9 | 46:56.51 | 3:40.69 | 211251 | 227819
10 | 50:37.45 | 3:23.03 | 227820 | 243047
11 | 54:00.48 | 8:36.59 | 243048 | 281806
Трек 1
Имя файла D:\UCP Velvet Underground\01. Dave Mihaly and Friends - Sunday Morning.wav
Длина предзазора 0:00:02.00
Пиковый уровень 99.9 %
Скорость извлечения 4.4 X
Качество трека 100.0 %
CRC теста 0F94FF00
CRC копии 0F94FF00
Копирование... OK
Трек 2
Имя файла D:\UCP Velvet Underground\02. The Blank Tapes - I'm Waiting for the Man.wav
Пиковый уровень 100.0 %
Скорость извлечения 5.0 X
Качество трека 100.0 %
CRC теста 6E1461B2
CRC копии 6E1461B2
Копирование... OK
Трек 3
Имя файла D:\UCP Velvet Underground\03. Rupa Marya + Guests - Femme Fatale.wav
Пиковый уровень 100.0 %
Скорость извлечения 5.4 X
Качество трека 100.0 %
CRC теста 2F3A23AC
CRC копии 2F3A23AC
Копирование... OK
Трек 4
Имя файла D:\UCP Velvet Underground\04. Sarah Palmer and Edmund Welles - Venus in Furs.wav
Пиковый уровень 99.9 %
Скорость извлечения 6.0 X
Качество трека 100.0 %
CRC теста 27BE1B76
CRC копии 27BE1B76
Копирование... OK
Трек 5
Имя файла D:\UCP Velvet Underground\05. California Honeydrops - Run Run Run.wav
Пиковый уровень 100.0 %
Скорость извлечения 6.2 X
Качество трека 100.0 %
CRC теста 1529CD37
CRC копии 1529CD37
Копирование... OK
Трек 6
Имя файла D:\UCP Velvet Underground\06. Jazz Mafia feat. Crystal Monee Hall - All Tomorrow's Parties.wav
Пиковый уровень 99.9 %
Скорость извлечения 7.0 X
Качество трека 100.0 %
CRC теста 6E420703
CRC копии 6E420703
Копирование... OK
Трек 7
Имя файла D:\UCP Velvet Underground\07. Mark Matos & Os Beaches - Heroin.wav
Пиковый уровень 100.0 %
Скорость извлечения 7.4 X
Качество трека 99.9 %
CRC теста F4B4DB84
CRC копии F4B4DB84
Копирование... OK
Трек 8
Имя файла D:\UCP Velvet Underground\08. Jugtown Pirates - There She Goes Again.wav
Пиковый уровень 100.0 %
Скорость извлечения 7.3 X
Качество трека 100.0 %
CRC теста 4A0FC23D
CRC копии 4A0FC23D
Копирование... OK
Трек 9
Имя файла D:\UCP Velvet Underground\09. Meklit Hadero - I'll Be Your Mirror.wav
Пиковый уровень 99.2 %
Скорость извлечения 7.6 X
Качество трека 100.0 %
CRC теста BC1E5EFA
CRC копии BC1E5EFA
Копирование... OK
Трек 10
Имя файла D:\UCP Velvet Underground\10. Classical Revolution - The Black Angel's Death Song.wav
Пиковый уровень 99.9 %
Скорость извлечения 7.7 X
Качество трека 100.0 %
CRC теста DB77722F
CRC копии DB77722F
Копирование... OK
Трек 11
Имя файла D:\UCP Velvet Underground\11. Joe Lewis and Stephan Jenkins - European Son.wav
Пиковый уровень 97.7 %
Скорость извлечения 8.8 X
Качество трека 100.0 %
CRC теста 53F39145
CRC копии 53F39145
Копирование... OK
Ошибок не произошло
Конец отчёта
Доп. информация: Сайт проекта: http://undercoverpresents.com/
Страница проекта на сайте лейбла: http://www.portofrancorecords.com/artists/undercover-presents/
О сборнике
UnderCover Presents - проект, в задачи которого входит переосмысление наиболее влиятельных альбомов в современной истории музыки. К собственной интерпретации приглашают авангардных музыкантов Сан-Франциско, которые, взяв каждый по одной песне, пытаются выразить собственное звучание, не потеряв за этим и объекта культа. Началом этого проекта стал концерт в Coda Supper Club 26 октября 2010 г., где за основу был взят первый альбом группы Velvet Underground. Записью этого выступления и является данный сборник.
Any questions -> support@pro-jazz.com. По всем вопросам пишите -> support@pro-jazz.com
22:43
165
Нет комментариев. Ваш будет первым!