Вы используете незарегистрированную версию компонента "Вкладки"!

Поиск

(Contemporary Jazz, Modern Creative, Free Jazz, CIMP) VA - CIMPosium - Volume 16 - 2006, FLAC (tracks+.cue), lossless

(Contemporary Jazz, Modern Creative, Free Jazz, CIMP) VA - CIMPosium - Volume 16 - 2006, FLAC (tracks+.cue), lossless
Треклист:
Various Artists / CIMPosium - Volume 16
Жанр: Contemporary Jazz, Modern Creative, Free Jazz
Страна-производитель диска: USA
Год издания диска: 2006
Издатель (лейбл): CIMP
Номер по каталогу: CIMP #716
Аудиокодек: FLAC (*.flac)
Тип рипа: tracks+.cue
Битрейт аудио: lossless
Продолжительность: 1:14:46
Источник (релизер): CD
Наличие сканов в содержимом раздачи: да
Треклист:
01 - First Keep Quiet - Stephen Gauci Trio
02 - Songs For Samuel: Part 4 - Jay Rosen
03 - Short Eyes - Trio-X: Joe McPhee - Dominic Duval - Jay Rosen
04 - Sea Cricket - Chris Kelsey Trio
05 - Coleman Captain Hornblower - Prince Lasha & Odean Pope Trio
06 - Magic Zone - Byard Lancaster Quartet
07 - Let's Play - William Gagliardi Quintet
08 - For Frank (Lowe) - Bobby Few & Avram Fefer Quartet
09 - The Autumn Carnivale - Ernie Krivda Quintet
10 - To Avenue X - Adam Lane Trio feat. V.Golia & V.Anderson
11 - Brother Soul - Carl Grubbs Quartet
12 - Cajun Stomp - Lucian Ban & Alex Harding
13 - Blues In The Rain - David Haney 3 feat. J.Priester & A.Lane
14 - Between Iraq And A Hard Place - Burton Greene Quintet
15 - Slow Blues In G - Byard Lancaster Quartet
 
Лог создания рипа
Exact Audio Copy V1.0 beta 2 from 29. April 2011
EAC extraction logfile from 26. September 2011, 13:33
Various Artists / CIMP Vol.16
Used drive : Optiarc DVD RW AD-7240S Adapter: 2 ID: 0
Read mode : Secure
Utilize accurate stream : Yes
Defeat audio cache : Yes
Make use of C2 pointers : No
Read offset correction : 48
Overread into Lead-In and Lead-Out : No
Fill up missing offset samples with silence : Yes
Delete leading and trailing silent blocks : No
Null samples used in CRC calculations : Yes
Used interface : Native Win32 interface for Win NT & 2000
Gap handling : Appended to previous track
Used output format : User Defined Encoder
Selected bitrate : 768 kBit/s
Quality : High
Add ID3 tag : No
Command line compressor : C:\Program Files\Exact Audio Copy\FLAC\FLAC.EXE
Additional command line options : -6 -V -T "ARTIST=%artist%" -T "TITLE=%title%" -T "ALBUM=%albumtitle%" -T "DATE=%year%" -T "TRACKNUMBER=%tracknr%" -T "GENRE=%genre%" -T "COMMENT=%comment%" -T "BAND=%albuminterpret%" -T "COMPOSER=%composer%" %haslyrics%--ta
TOC of the extracted CD
Track | Start | Length | Start sector | End sector
---------------------------------------------------------
1 | 0:00.00 | 5:26.15 | 0 | 24464
2 | 5:26.15 | 2:56.35 | 24465 | 37699
3 | 8:22.50 | 4:20.70 | 37700 | 57269
4 | 12:43.45 | 4:46.26 | 57270 | 78745
5 | 17:29.71 | 5:07.54 | 78746 | 101824
6 | 22:37.50 | 4:38.56 | 101825 | 122730
7 | 27:16.31 | 6:06.70 | 122731 | 150250
8 | 33:23.26 | 5:24.14 | 150251 | 174564
9 | 38:47.40 | 6:05.71 | 174565 | 202010
10 | 44:53.36 | 5:48.64 | 202011 | 228174
11 | 50:42.25 | 5:13.23 | 228175 | 251672
12 | 55:55.48 | 5:56.52 | 251673 | 278424
13 | 61:52.25 | 3:57.73 | 278425 | 296272
14 | 65:50.23 | 3:55.42 | 296273 | 313939
15 | 69:45.65 | 5:01.00 | 313940 | 336514
Track 1
Filename C:\CIMP Vol.16 (2006)\01 First Keep Quiet.wav
Pre-gap length 0:00:02.00
Peak level 98.8 %
Extraction speed 2.5 X
Track quality 100.0 %
Test CRC 32C3A512
Copy CRC 32C3A512
Track not present in AccurateRip database
Copy OK
Track 2
Filename C:\CIMP Vol.16 (2006)\02 Songs For Samuel- Part 4.wav
Pre-gap length 0:00:02.58
Peak level 94.9 %
Extraction speed 2.6 X
Track quality 100.0 %
Test CRC D5629CC0
Copy CRC D5629CC0
Track not present in AccurateRip database
Copy OK
Track 3
Filename C:\CIMP Vol.16 (2006)\03 Short Eyes.wav
Pre-gap length 0:00:02.57
Peak level 70.8 %
Extraction speed 2.6 X
Track quality 99.9 %
Test CRC 3B008B83
Copy CRC 3B008B83
Track not present in AccurateRip database
Copy OK
Track 4
Filename C:\CIMP Vol.16 (2006)\04 Sea Cricket.wav
Pre-gap length 0:00:02.57
Peak level 100.0 %
Extraction speed 3.2 X
Track quality 100.0 %
Test CRC EE56176D
Copy CRC EE56176D
Track not present in AccurateRip database
Copy OK
Track 5
Filename C:\CIMP Vol.16 (2006)\05 Coleman Captain Hornblower.wav
Pre-gap length 0:00:02.57
Peak level 53.3 %
Extraction speed 3.2 X
Track quality 99.9 %
Test CRC 1830D19D
Copy CRC 1830D19D
Track not present in AccurateRip database
Copy OK
Track 6
Filename C:\CIMP Vol.16 (2006)\06 Magic Zone.wav
Pre-gap length 0:00:02.58
Peak level 33.4 %
Extraction speed 3.7 X
Track quality 100.0 %
Test CRC 4EB6F1FC
Copy CRC 4EB6F1FC
Track not present in AccurateRip database
Copy OK
Track 7
Filename C:\CIMP Vol.16 (2006)\07 Let's Play.wav
Pre-gap length 0:00:02.57
Peak level 94.3 %
Extraction speed 4.1 X
Track quality 100.0 %
Test CRC A4848DE3
Copy CRC A4848DE3
Track not present in AccurateRip database
Copy OK
Track 8
Filename C:\CIMP Vol.16 (2006)\08 For Frank (Lowe).wav
Pre-gap length 0:00:02.58
Peak level 41.1 %
Extraction speed 4.3 X
Track quality 100.0 %
Test CRC 1310FB5B
Copy CRC 1310FB5B
Track not present in AccurateRip database
Copy OK
Track 9
Filename C:\CIMP Vol.16 (2006)\09 The Autumn Carnivale.wav
Pre-gap length 0:00:02.57
Peak level 92.6 %
Extraction speed 4.5 X
Track quality 100.0 %
Test CRC 7A40EA13
Copy CRC 7A40EA13
Track not present in AccurateRip database
Copy OK
Track 10
Filename C:\CIMP Vol.16 (2006)\10 To Avenue X.wav
Pre-gap length 0:00:02.58
Peak level 54.4 %
Extraction speed 4.7 X
Track quality 100.0 %
Test CRC 60AB41E4
Copy CRC 60AB41E4
Track not present in AccurateRip database
Copy OK
Track 11
Filename C:\CIMP Vol.16 (2006)\11 Brother Soul.wav
Pre-gap length 0:00:02.57
Peak level 55.5 %
Extraction speed 4.8 X
Track quality 100.0 %
Test CRC 66BA9A49
Copy CRC 66BA9A49
Track not present in AccurateRip database
Copy OK
Track 12
Filename C:\CIMP Vol.16 (2006)\12 Cajun Stomp.wav
Pre-gap length 0:00:02.57
Peak level 47.0 %
Extraction speed 5.1 X
Track quality 100.0 %
Test CRC E85342A4
Copy CRC E85342A4
Track not present in AccurateRip database
Copy OK
Track 13
Filename C:\CIMP Vol.16 (2006)\13 Blues In The Rain.wav
Pre-gap length 0:00:02.58
Peak level 26.7 %
Extraction speed 5.0 X
Track quality 100.0 %
Test CRC 0B15244C
Copy CRC 0B15244C
Track not present in AccurateRip database
Copy OK
Track 14
Filename C:\CIMP Vol.16 (2006)\14 Between Iraq And A Hard Place.wav
Pre-gap length 0:00:02.57
Peak level 95.2 %
Extraction speed 5.2 X
Track quality 100.0 %
Test CRC 3483C692
Copy CRC 3483C692
Track not present in AccurateRip database
Copy OK
Track 15
Filename C:\CIMP Vol.16 (2006)\15 Slow Blues In G.wav
Pre-gap length 0:00:02.58
Peak level 97.6 %
Extraction speed 5.4 X
Track quality 100.0 %
Test CRC E5BF705B
Copy CRC E5BF705B
Track not present in AccurateRip database
Copy OK
None of the tracks are present in the AccurateRip database
No errors occurred
End of status report
==== Log checksum 7BC05276C649B2D68251FD87A70412BB99B7986E5F241B281981A303F35A8C72 ====
 
Содержание индексной карты (.CUE)
REM GENRE Jazz
REM DATE 2006
REM DISCID D511860F
REM COMMENT "ExactAudioCopy v1.0b2"
CATALOG 0786497567423
PERFORMER "Various Artists"
TITLE "CIMP Vol.16"
FILE "01 First Keep Quiet.wav" WAVE
TRACK 01 AUDIO
TITLE "First Keep Quiet"
PERFORMER "Stephen Gauci Trio"
ISRC US23Z0600025
INDEX 01 00:00:00
TRACK 02 AUDIO
TITLE "Songs For Samuel: Part 4"
PERFORMER "Jay Rosen"
ISRC US23Z0600026
INDEX 00 05:23:32
FILE "02 Songs For Samuel- Part 4.wav" WAVE
INDEX 01 00:00:00
TRACK 03 AUDIO
TITLE "Short Eyes"
PERFORMER "Trio X"
ISRC US23Z0600027
INDEX 00 02:53:53
FILE "03 Short Eyes.wav" WAVE
INDEX 01 00:00:00
TRACK 04 AUDIO
TITLE "Sea Cricket"
PERFORMER "Chris Keley Trio"
ISRC US23Z0600028
INDEX 00 04:18:13
FILE "04 Sea Cricket.wav" WAVE
INDEX 01 00:00:00
TRACK 05 AUDIO
TITLE "Coleman Captain Hornblower "
PERFORMER "Prince Lasha & Odean Pope Trio"
ISRC US23Z0600029
INDEX 00 04:43:44
FILE "05 Coleman Captain Hornblower.wav" WAVE
INDEX 01 00:00:00
TRACK 06 AUDIO
TITLE "Magic Zone"
PERFORMER "Byard Lancaster Quartet"
ISRC US23Z0600030
INDEX 00 05:04:71
FILE "06 Magic Zone.wav" WAVE
INDEX 01 00:00:00
TRACK 07 AUDIO
TITLE "Let's Play"
PERFORMER "William Gagliardi Quartet"
ISRC US23Z0600031
INDEX 00 04:35:74
FILE "07 Let's Play.wav" WAVE
INDEX 01 00:00:00
TRACK 08 AUDIO
TITLE "For Frank (Lowe)"
PERFORMER "Bobby Few & Avram Fefer Quartet"
ISRC US23Z0600032
INDEX 00 06:04:12
FILE "08 For Frank (Lowe).wav" WAVE
INDEX 01 00:00:00
TRACK 09 AUDIO
TITLE "The Autumn Carnivale"
PERFORMER "Ernie Krivda Quartet"
ISRC US23Z0600033
INDEX 00 05:21:32
FILE "09 The Autumn Carnivale.wav" WAVE
INDEX 01 00:00:00
TRACK 10 AUDIO
TITLE "To Avenue X"
PERFORMER "Adam Lane Trio"
ISRC US23Z0600034
INDEX 00 06:03:13
FILE "10 To Avenue X.wav" WAVE
INDEX 01 00:00:00
TRACK 11 AUDIO
TITLE "Brother Soul"
PERFORMER "Carl Grubbs Quartet"
ISRC US23Z0600035
INDEX 00 05:46:07
FILE "11 Brother Soul.wav" WAVE
INDEX 01 00:00:00
TRACK 12 AUDIO
TITLE "Cajun Stomp"
PERFORMER "Lucian Ben & Alex Harding"
ISRC US23Z0600036
INDEX 00 05:10:41
FILE "12 Cajun Stomp.wav" WAVE
INDEX 01 00:00:00
TRACK 13 AUDIO
TITLE "Blues In The Rain"
PERFORMER "David Haney 3"
ISRC US23Z0600037
INDEX 00 05:53:69
FILE "13 Blues In The Rain.wav" WAVE
INDEX 01 00:00:00
TRACK 14 AUDIO
TITLE "Between Iraq And A Hard Place"
PERFORMER "Burton Greene Quintet"
ISRC US23Z0600038
INDEX 00 03:55:16
FILE "14 Between Iraq And A Hard Place.wav" WAVE
INDEX 01 00:00:00
TRACK 15 AUDIO
TITLE "Slow Blues In G"
PERFORMER "Byard Lancaster Qurtet"
ISRC US23Z0600039
INDEX 00 03:52:59
FILE "15 Slow Blues In G.wav" WAVE
INDEX 01 00:00:00
Any questions -> support@pro-jazz.com. По всем вопросам пишите -> support@pro-jazz.com
17:20
141
Нет комментариев. Ваш будет первым!