Вы используете незарегистрированную версию компонента "Вкладки"!

Поиск

(Free Improvisation, Free jazz) Oliver Lake Quartet - Edge-ing - 1994, FLAC (tracks+.cue), lossless

Треклист:
Oliver Lake Quartet - Edge-ing
Жанр: Free Improvisation, Free jazz
Страна-производитель диска: Italy
Год издания диска: 1994
Издатель (лейбл): Black Saint Records
Номер по каталогу: BSR 120 104-2
Аудиокодек: FLAC (*.flac)
Тип рипа: tracks+.cue
Битрейт аудио: lossless
Продолжительность: 54:28
Источник (релизер): собственный рип с оригинального диска.
Наличие сканов в содержимом раздачи: да
Треклист:
01. Edge-Ing
02. Scene One
03. Shiffs
04. Peanut Butter
05. Zaki
06. Verve Nerve
 
Лог создания рипа
Exact Audio Copy V0.99 prebeta 5 from 4. May 2009
EAC extraction logfile from 24. July 2011, 21:50
Oliver Lake Quartet / Edge-ing
Used drive : TSSTcorpCDDVDW SH-S222A Adapter: 1 ID: 0
Read mode : Secure
Utilize accurate stream : Yes
Defeat audio cache : Yes
Make use of C2 pointers : No
Read offset correction : 6
Overread into Lead-In and Lead-Out : No
Fill up missing offset samples with silence : Yes
Delete leading and trailing silent blocks : No
Null samples used in CRC calculations : Yes
Used interface : Installed external ASPI interface
Gap handling : Appended to previous track
Used output format : User Defined Encoder
Selected bitrate : 768 kBit/s
Quality : High
Add ID3 tag : No
Command line compressor : C:\Tool\Compress\FLAC\flac.exe
Additional command line options : -8 -V -T "ARTIST=%a" -T "TITLE=%t" -T "ALBUM=%g" -T "DATE=%y" -T "TRACKNUMBER=%n" -T "TOTALTRACKS=%x" -T "GENRE=%m" -T "ALBUM ARTIST=%v" -T "COMMENT=EAC V0.99 prebeta 5, Secure Mode, Test & Copy, AccurateRip, FLAC -8" %s
TOC of the extracted CD
Track | Start | Length | Start sector | End sector
---------------------------------------------------------
1 | 0:00.33 | 9:08.50 | 33 | 41182
2 | 9:09.08 | 8:42.00 | 41183 | 80332
3 | 17:51.08 | 11:18.25 | 80333 | 131207
4 | 29:09.33 | 10:27.50 | 131208 | 178282
5 | 39:37.08 | 5:46.62 | 178283 | 204294
6 | 45:23.70 | 9:07.38 | 204295 | 245357
Track 1
Filename C:\! UPLOAD\Oliver Lake Quartet - Edge-ing (1994) [FLAC] {Black Saint}\01 - Edge-ing.wav
Pre-gap length 0:00:02.44
Peak level 91.3 %
Track quality 100.0 %
Test CRC 1F094EEE
Copy CRC 1F094EEE
Accurately ripped (confidence 3) [B357864E]
Copy OK
Track 2
Filename C:\! UPLOAD\Oliver Lake Quartet - Edge-ing (1994) [FLAC] {Black Saint}\02 - Scene One.wav
Peak level 70.4 %
Track quality 99.9 %
Test CRC FE419990
Copy CRC FE419990
Accurately ripped (confidence 3) [8B6B234F]
Copy OK
Track 3
Filename C:\! UPLOAD\Oliver Lake Quartet - Edge-ing (1994) [FLAC] {Black Saint}\03 - Shiffs.wav
Peak level 90.4 %
Track quality 100.0 %
Test CRC A56D2141
Copy CRC A56D2141
Accurately ripped (confidence 3) [133EA323]
Copy OK
Track 4
Filename C:\! UPLOAD\Oliver Lake Quartet - Edge-ing (1994) [FLAC] {Black Saint}\04 - Peanut Butter.wav
Peak level 93.4 %
Track quality 100.0 %
Test CRC DB010A82
Copy CRC DB010A82
Accurately ripped (confidence 3) [A8032BD9]
Copy OK
Track 5
Filename C:\! UPLOAD\Oliver Lake Quartet - Edge-ing (1994) [FLAC] {Black Saint}\05 - Zaki.wav
Peak level 78.6 %
Track quality 100.0 %
Test CRC CCC7A435
Copy CRC CCC7A435
Accurately ripped (confidence 3) [8AF9164C]
Copy OK
Track 6
Filename C:\! UPLOAD\Oliver Lake Quartet - Edge-ing (1994) [FLAC] {Black Saint}\06 - Verve Nerve.wav
Peak level 88.0 %
Track quality 100.0 %
Test CRC 675935DC
Copy CRC 675935DC
Accurately ripped (confidence 3) [7AC9C57F]
Copy OK
All tracks accurately ripped
No errors occurred
End of status report
 
Содержание индексной карты (.CUE)
REM GENRE Jazz
REM DATE 1994
REM DISCID 4B0CC706
REM COMMENT "ExactAudioCopy v0.99pb5"
CATALOG 0000000000000
PERFORMER "Oliver Lake Quartet"
TITLE "Edge-ing"
FILE "01 - Edge-ing.wav" WAVE
TRACK 01 AUDIO
TITLE "Edge-ing"
PERFORMER "Oliver Lake Quartet"
PREGAP 00:00:33
INDEX 01 00:00:00
FILE "02 - Scene One.wav" WAVE
TRACK 02 AUDIO
TITLE "Scene One"
PERFORMER "Oliver Lake Quartet"
INDEX 01 00:00:00
FILE "03 - Shiffs.wav" WAVE
TRACK 03 AUDIO
TITLE "Shiffs"
PERFORMER "Oliver Lake Quartet"
INDEX 01 00:00:00
FILE "04 - Peanut Butter.wav" WAVE
TRACK 04 AUDIO
TITLE "Peanut Butter"
PERFORMER "Oliver Lake Quartet"
INDEX 01 00:00:00
FILE "05 - Zaki.wav" WAVE
TRACK 05 AUDIO
TITLE "Zaki"
PERFORMER "Oliver Lake Quartet"
INDEX 01 00:00:00
FILE "06 - Verve Nerve.wav" WAVE
TRACK 06 AUDIO
TITLE "Verve Nerve"
PERFORMER "Oliver Lake Quartet"
INDEX 01 00:00:00
Доп. информация:
Recorded on 28, 29 June 1993 at Mu Rec Studio, Milano, Italy.
Mastered at PhonoComp, Tribiano - Milano.
 
Об альбоме (сборнике)
...Lake has staked out...a post-Dolphy mainstream, where structural quirks of his compositions and the sudden spikes of intensity in his solos are leavened by a refreshing matter-of-fact temperament....EDGE-ING deals with tradition without being retro and pushes the envelope without getting pushy... JazzTimes (04/01/1995)
 
Состав
Oliver Lake - alto saxophone
Charles Eubanks - piano
Reggie Workman - acoustic bass
Andrew Cyrille - drums
Any questions -> support@pro-jazz.com. По всем вопросам пишите -> support@pro-jazz.com
15:40
189
Нет комментариев. Ваш будет первым!