Вы используете незарегистрированную версию компонента "Вкладки"!

Поиск

(Free Jazz) Oliver Lake - Julius Hemphill - Buster Bee - 2002, FLAC (tracks+.cue), lossless

(Free Jazz) Oliver Lake - Julius Hemphill - Buster Bee - 2002, FLAC (tracks+.cue), lossless
Треклист:
Oliver Lake - Julius Hemphill - Buster Bee
Жанр: Free Jazz
Страна-производитель диска: Canada
Год издания диска: 2002
Издатель (лейбл): Sackville Recordings
Номер по каталогу: SKCD2-3018
Аудиокодек: FLAC (*.flac)
Тип рипа: tracks+.cue
Битрейт аудио: lossless
Продолжительность: 45:43
Источник (релизер): собственный рип с оригинального диска.
Наличие сканов в содержимом раздачи: да
Треклист:
01. Buster Bee
02. Vator
03. Fertility
04. S
05. A Stand
06. Flesh Turns Chi
 
Лог создания рипа
Exact Audio Copy V0.99 prebeta 5 from 4. May 2009
EAC extraction logfile from 25. July 2011, 1:06
Oliver Lake-Julius Hemphill / Buster Bee
Used drive : HL-DT-STDVDRAM GSA-U20N Adapter: 2 ID: 0
Read mode : Secure
Utilize accurate stream : Yes
Defeat audio cache : Yes
Make use of C2 pointers : No
Read offset correction : 667
Overread into Lead-In and Lead-Out : No
Fill up missing offset samples with silence : Yes
Delete leading and trailing silent blocks : No
Null samples used in CRC calculations : Yes
Used interface : Native Win32 interface for Win NT & 2000
Gap handling : Appended to previous track
Used output format : User Defined Encoder
Selected bitrate : 768 kBit/s
Quality : High
Add ID3 tag : No
Command line compressor : C:\Program Files\Exact Audio Copy\Flac\flac.exe
Additional command line options : -8 -V -T "ARTIST=%a" -T "TITLE=%t" -T "ALBUM=%g" -T "DATE=%y" -T "TRACKNUMBER=%n" -T "TOTALTRACKS=%x" -T "GENRE=%m" -T "ALBUM ARTIST=%v" -T "COMMENT=EAC V0.99 prebeta 5, Secure Mode, Test & Copy, AccurateRip, FLAC -8" %s
TOC of the extracted CD
Track | Start | Length | Start sector | End sector
---------------------------------------------------------
1 | 0:00.00 | 10:21.52 | 0 | 46626
2 | 10:21.52 | 5:53.19 | 46627 | 73120
3 | 16:14.71 | 6:58.04 | 73121 | 104474
4 | 23:13.00 | 8:14.26 | 104475 | 141550
5 | 31:27.26 | 4:29.35 | 141551 | 161760
6 | 35:56.61 | 9:48.06 | 161761 | 205866
Track 1
Filename C:\UPLOAD\Oliver Lake-Julius Hemphill - Buster Bee (2002) [FLAC] {Sackville}\01 - Buster Bee .wav
Pre-gap length 0:00:02.00
Peak level 48.8 %
Track quality 100.0 %
Test CRC 9D38C70F
Copy CRC 9D38C70F
Track not present in AccurateRip database
Copy OK
Track 2
Filename C:\UPLOAD\Oliver Lake-Julius Hemphill - Buster Bee (2002) [FLAC] {Sackville}\02 - Vator .wav
Pre-gap length 0:00:07.58
Peak level 24.7 %
Track quality 100.0 %
Test CRC 22A6E4CB
Copy CRC 22A6E4CB
Track not present in AccurateRip database
Copy OK
Track 3
Filename C:\UPLOAD\Oliver Lake-Julius Hemphill - Buster Bee (2002) [FLAC] {Sackville}\03 - fertility .wav
Pre-gap length 0:00:07.57
Peak level 34.4 %
Track quality 99.9 %
Test CRC 7A90B179
Copy CRC 7A90B179
Track not present in AccurateRip database
Copy OK
Track 4
Filename C:\UPLOAD\Oliver Lake-Julius Hemphill - Buster Bee (2002) [FLAC] {Sackville}\04 - S .wav
Pre-gap length 0:00:07.57
Peak level 42.2 %
Track quality 100.0 %
Test CRC 63E94AC9
Copy CRC 63E94AC9
Track not present in AccurateRip database
Copy OK
Track 5
Filename C:\UPLOAD\Oliver Lake-Julius Hemphill - Buster Bee (2002) [FLAC] {Sackville}\05 - A Stand .wav
Pre-gap length 0:00:07.57
Peak level 49.6 %
Track quality 100.0 %
Test CRC 411EA6C4
Copy CRC 411EA6C4
Track not present in AccurateRip database
Copy OK
Track 6
Filename C:\UPLOAD\Oliver Lake-Julius Hemphill - Buster Bee (2002) [FLAC] {Sackville}\06 - Flesh Turns Chi .wav
Pre-gap length 0:00:07.57
Peak level 43.8 %
Track quality 99.9 %
Test CRC 8253BC52
Copy CRC 8253BC52
Track not present in AccurateRip database
Copy OK
None of the tracks are present in the AccurateRip database
No errors occurred
End of status report
 
Содержание индексной карты (.CUE)
REM GENRE Jazz
REM DATE 1978
REM DISCID 5F0AB806
REM COMMENT "ExactAudioCopy v0.99pb5"
PERFORMER "Oliver Lake-Julius Hemphill"
TITLE "Buster Bee"
FILE "01 - Buster Bee .wav" WAVE
TRACK 01 AUDIO
TITLE "Buster Bee"
PERFORMER "Oliver Lake-Julius Hemphill"
INDEX 01 00:00:00
TRACK 02 AUDIO
TITLE "Vator"
PERFORMER "Oliver Lake-Julius Hemphill"
INDEX 00 10:13:69
FILE "02 - Vator .wav" WAVE
INDEX 01 00:00:00
TRACK 03 AUDIO
TITLE "fertility"
PERFORMER "Oliver Lake-Julius Hemphill"
INDEX 00 05:45:37
FILE "03 - fertility .wav" WAVE
INDEX 01 00:00:00
TRACK 04 AUDIO
TITLE "S"
PERFORMER "Oliver Lake-Julius Hemphill"
INDEX 00 06:50:22
FILE "04 - S .wav" WAVE
INDEX 01 00:00:00
TRACK 05 AUDIO
TITLE "A Stand"
PERFORMER "Oliver Lake-Julius Hemphill"
INDEX 00 08:06:44
FILE "05 - A Stand .wav" WAVE
INDEX 01 00:00:00
TRACK 06 AUDIO
TITLE "Flesh Turns Chi"
PERFORMER "Oliver Lake-Julius Hemphill"
INDEX 00 04:21:53
FILE "06 - Flesh Turns Chi .wav" WAVE
INDEX 01 00:00:00
Доп. информация:
Recorded at Eastern Sound, Toronto on March 1st, 1978
 
Об альбоме (сборнике)
During the mid- and late '70s, countless duo recordings were released by members of the jazz avant-garde. While the driving force behind this strategy was economic (two could travel much more cheaply than six or more), this necessity also forced the artists to construct new and challenging strategies for playing, especially when the combination of instruments was less than traditional. At the time of this recording, Hemphill and Lake already formed half of the World Saxophone Quartet, but Buster Bee allows them an unusual intimacy that fosters some lovely playing and interaction. They stick to the higher reeds (and flutes), imbuing the pieces with an airy quality as they effortlessly interweave lines and ideas. All of the tracks are composed (though allowing for substantial improvisation) and are a pleasingly varied bunch, from the jaunty title track to the achingly elegiac "Fertility." Both players are near the top of their game, with subtle liquid phrasing giving way to impassioned cries on a moment's notice. Recommended. ~ Brian Olewnick, Rovi
 
Состав
Oliver Lake - alto sax, soprano sax, flute, tambourine
Julius Hemphill - alto sax, soprano sax
По всем вопросам пишите личное сообщение пользователю M0p94ok.
15:41
317
Нет комментариев. Ваш будет первым!