Вы используете незарегистрированную версию компонента "Вкладки"!

Поиск

(Contemporary Jazz) Oliver Lake Quintet - Dedicated to Dolphy - 1996, FLAC (tracks+.cue), lossless

(Contemporary Jazz) Oliver Lake Quintet - Dedicated to Dolphy - 1996, FLAC (tracks+.cue), lossless
Треклист:
Oliver Lake Quintet - Dedicated to Dolphy
Жанр: Contemporary Jazz
Страна-производитель диска: Italy
Год издания диска: 1996
Издатель (лейбл): Black Saint Records
Номер по каталогу: BSR 120 144-2
Аудиокодек: FLAC (*.flac)
Тип рипа: tracks+.cue
Битрейт аудио: lossless
Продолжительность: 54:39
Источник (релизер): собственный рип с оригинального диска.
Наличие сканов в содержимом раздачи: да
Треклист:
01. Fire Waltz Waldron 7:04
02. Hat and Beard Dolphy 4:10
03. Feather Smith 5:49
04. 245 Dolphy 8:19
05. Miss Ann Dolphy 6:21
06. Something Sweet, Something Tender Dolphy 5:39
07. November '80 Lake 2:18
08. Page Four Lake 6:34
09. G.W. Dolphy 8:30
 
Лог создания рипа
Exact Audio Copy V0.99 prebeta 5 from 4. May 2009
EAC extraction logfile from 24. July 2011, 23:40
Oliver Lake Quintet / Dedicated to Dolphy
Used drive : TSSTcorpCDDVDW SH-S222A Adapter: 1 ID: 0
Read mode : Secure
Utilize accurate stream : Yes
Defeat audio cache : Yes
Make use of C2 pointers : No
Read offset correction : 6
Overread into Lead-In and Lead-Out : No
Fill up missing offset samples with silence : Yes
Delete leading and trailing silent blocks : No
Null samples used in CRC calculations : Yes
Used interface : Installed external ASPI interface
Gap handling : Appended to previous track
Used output format : User Defined Encoder
Selected bitrate : 768 kBit/s
Quality : High
Add ID3 tag : No
Command line compressor : C:\Tool\Compress\FLAC\flac.exe
Additional command line options : -8 -V -T "ARTIST=%a" -T "TITLE=%t" -T "ALBUM=%g" -T "DATE=%y" -T "TRACKNUMBER=%n" -T "TOTALTRACKS=%x" -T "GENRE=%m" -T "ALBUM ARTIST=%v" -T "COMMENT=EAC V0.99 prebeta 5, Secure Mode, Test & Copy, AccurateRip, FLAC -8" %s
TOC of the extracted CD
Track | Start | Length | Start sector | End sector
---------------------------------------------------------
1 | 0:00.00 | 7:04.25 | 0 | 31824
2 | 7:04.25 | 4:10.00 | 31825 | 50574
3 | 11:14.25 | 5:48.00 | 50575 | 76674
4 | 17:02.25 | 8:18.22 | 76675 | 114046
5 | 25:20.47 | 6:21.30 | 114047 | 142651
6 | 31:42.02 | 5:39.18 | 142652 | 168094
7 | 37:21.20 | 2:16.55 | 168095 | 178349
8 | 39:38.00 | 6:35.00 | 178350 | 207974
9 | 46:13.00 | 8:29.00 | 207975 | 246149
Track 1
Filename C:\! UPLOAD\Oliver Lake Quintet - Dedicated to Dolphy (1996) [FLAC] {Black Saint}\01 - Fire Waltz.wav
Pre-gap length 0:00:02.00
Peak level 99.0 %
Track quality 100.0 %
Test CRC 177780DA
Copy CRC 177780DA
Track not present in AccurateRip database
Copy OK
Track 2
Filename C:\! UPLOAD\Oliver Lake Quintet - Dedicated to Dolphy (1996) [FLAC] {Black Saint}\02 - Hat And Beard.wav
Peak level 99.0 %
Track quality 100.0 %
Test CRC A957B425
Copy CRC A957B425
Track not present in AccurateRip database
Copy OK
Track 3
Filename C:\! UPLOAD\Oliver Lake Quintet - Dedicated to Dolphy (1996) [FLAC] {Black Saint}\03 - Feather.wav
Peak level 73.7 %
Track quality 99.9 %
Test CRC 9CF73B06
Copy CRC 9CF73B06
Track not present in AccurateRip database
Copy OK
Track 4
Filename C:\! UPLOAD\Oliver Lake Quintet - Dedicated to Dolphy (1996) [FLAC] {Black Saint}\04 - 245.wav
Peak level 99.3 %
Track quality 100.0 %
Test CRC CE1454E4
Copy CRC CE1454E4
Track not present in AccurateRip database
Copy OK
Track 5
Filename C:\! UPLOAD\Oliver Lake Quintet - Dedicated to Dolphy (1996) [FLAC] {Black Saint}\05 - Miss Ann.wav
Peak level 99.0 %
Track quality 100.0 %
Test CRC 84FB2F6B
Copy CRC 84FB2F6B
Track not present in AccurateRip database
Copy OK
Track 6
Filename C:\! UPLOAD\Oliver Lake Quintet - Dedicated to Dolphy (1996) [FLAC] {Black Saint}\06 - Something Sweet Something Tender.wav
Peak level 77.1 %
Track quality 100.0 %
Test CRC 77D555D4
Copy CRC 77D555D4
Track not present in AccurateRip database
Copy OK
Track 7
Filename C:\! UPLOAD\Oliver Lake Quintet - Dedicated to Dolphy (1996) [FLAC] {Black Saint}\07 - Nov. 80.wav
Peak level 99.0 %
Track quality 100.0 %
Test CRC DC9968A4
Copy CRC DC9968A4
Track not present in AccurateRip database
Copy OK
Track 8
Filename C:\! UPLOAD\Oliver Lake Quintet - Dedicated to Dolphy (1996) [FLAC] {Black Saint}\08 - Page 4.wav
Peak level 99.0 %
Track quality 100.0 %
Test CRC C06B83D1
Copy CRC C06B83D1
Track not present in AccurateRip database
Copy OK
Track 9
Filename C:\! UPLOAD\Oliver Lake Quintet - Dedicated to Dolphy (1996) [FLAC] {Black Saint}\09 - G. W..wav
Peak level 99.0 %
Track quality 100.0 %
Test CRC 263AD3A8
Copy CRC 263AD3A8
Track not present in AccurateRip database
Copy OK
None of the tracks are present in the AccurateRip database
No errors occurred
End of status report
 
Содержание индексной карты (.CUE)
REM GENRE Jazz
REM DATE 1996
REM DISCID 6D0CD209
REM COMMENT "ExactAudioCopy v0.99pb5"
PERFORMER "Oliver Lake Quintet"
TITLE "Dedicated to Dolphy"
FILE "01 - Fire Waltz.wav" WAVE
TRACK 01 AUDIO
TITLE "Fire Waltz"
PERFORMER "Oliver Lake Quintet"
INDEX 01 00:00:00
FILE "02 - Hat And Beard.wav" WAVE
TRACK 02 AUDIO
TITLE "Hat And Beard"
PERFORMER "Oliver Lake Quintet"
INDEX 01 00:00:00
FILE "03 - Feather.wav" WAVE
TRACK 03 AUDIO
TITLE "Feather"
PERFORMER "Oliver Lake Quintet"
INDEX 01 00:00:00
FILE "04 - 245.wav" WAVE
TRACK 04 AUDIO
TITLE "245"
PERFORMER "Oliver Lake Quintet"
INDEX 01 00:00:00
FILE "05 - Miss Ann.wav" WAVE
TRACK 05 AUDIO
TITLE "Miss Ann"
PERFORMER "Oliver Lake Quintet"
INDEX 01 00:00:00
FILE "06 - Something Sweet Something Tender.wav" WAVE
TRACK 06 AUDIO
TITLE "Something Sweet Something Tender"
PERFORMER "Oliver Lake Quintet"
INDEX 01 00:00:00
FILE "07 - Nov. 80.wav" WAVE
TRACK 07 AUDIO
TITLE "Nov. 80"
PERFORMER "Oliver Lake Quintet"
INDEX 01 00:00:00
FILE "08 - Page 4.wav" WAVE
TRACK 08 AUDIO
TITLE "Page 4"
PERFORMER "Oliver Lake Quintet"
INDEX 01 00:00:00
FILE "09 - G. W..wav" WAVE
TRACK 09 AUDIO
TITLE "G. W."
PERFORMER "Oliver Lake Quintet"
INDEX 01 00:00:00
Доп. информация:
Recorded on 1, 2 & 8 November 1994 at East Side Sound, NYC.
 
Об альбоме (сборнике)
Alto saxophonist Oliver Lake doesn't have the multi-instrumental versatility or range of expression of the late Eric Dolphy, but he demonstrates the same controlled passion on this satisfying quintet date. His reworking of Dolphy's quirky "Hat and Beard" is actually brighter-sounding as a result of substituting alto sax for bass clarinet. Pianist Charles Eubanks' bluesy chords on "245" provide inspiration for the leader and the fine young trumpeter Russel Gunn. An excellent salute to Dolphy with a couple of strong Lake originals thrown in for good measure. ~~ by Ken Dryden
 
Состав
Russel Gunn - trumpet
Oliver Lake - sax
Charles Eubanks - piano
Belden Bullock - bass
Cecil Brooks - drums
Any questions -> support@pro-jazz.com. По всем вопросам пишите -> support@pro-jazz.com
15:40
200
Нет комментариев. Ваш будет первым!