Вы используете незарегистрированную версию компонента "Вкладки"!

Поиск

(Free Improvisation, Free Jazz) Mikolaj Trzaska, Tomasz Szwelnik - Don't Leave Us Home Alone - 2011, FLAC (tracks+.cue), lossless

(Free Improvisation, Free Jazz) Mikolaj Trzaska, Tomasz Szwelnik - Don't Leave Us Home Alone - 2011, FLAC (tracks+.cue), lossless
Треклист:
Trzaska, Szwelnik / Don't Leave Us Home Alone
Жанр: Free Improvisation, Free Jazz
Страна-производитель диска: Poland
Год издания: 2011
Издатель (лейбл): Kilogram Records
Номер по каталогу: 019
Аудиокодек: FLAC (*.flac)
Тип рипа: tracks+.cue
Битрейт аудио: lossless
Продолжительность: 55:55
Источник (релизер): whatcd
Наличие сканов в содержимом раздачи: нет
Треклист:
1 Don't Leave Us Home Alone
2 The Last Three Cookies
3 He Could Hear Trees Grow
4 A Man Inside A Knight
5 He Saw Them Get In, But Coulon't Do Anything
6 Friend, Brother, Hero
7 Smoke Was Gathering Under The Eyelids
8 Eric, Leave The Lights On When You Leave
9 Quicksilver Child
10 To Stand On Tiptoe
11 Strokind A Dragon's Muzzle
12 Cleaning Using Stardust
13 Between The Ship's Ports
14 Don't Talk To Me When I'm Driving
15 Watermarks
16 He Understood How The Dog Operates
17 Hands Tied With A Hair Band
18 His Heart Was His Stove Fuel
19 The Pigglet Is Remembering Its Life
 
Лог создания рипа
Exact Audio Copy V1.0 beta 3 from 29. August 2011
EAC extraction logfile from 29. December 2012, 10:14
Mikolaj Trzaska & Tomasz Szwelnik / Don't Leave Us Home Alone
Used drive : SlimtypeeSAU108 8 Adapter: 2 ID: 0
Read mode : Secure
Utilize accurate stream : Yes
Defeat audio cache : Yes
Make use of C2 pointers : No
Read offset correction : 6
Overread into Lead-In and Lead-Out : No
Fill up missing offset samples with silence : Yes
Delete leading and trailing silent blocks : No
Null samples used in CRC calculations : Yes
Used interface : Native Win32 interface for Win NT & 2000
Gap handling : Appended to previous track
Used output format : User Defined Encoder
Selected bitrate : 1024 kBit/s
Quality : High
Add ID3 tag : No
Command line compressor : C:\Program Files (x86)\Exact Audio Copy\Flac\flac.exe
Additional command line options : -8 -V -T "ARTIST=%artist%" -T "TITLE=%title%" -T "ALBUM=%albumtitle%" -T "DATE=%year%" -T "TRACKNUMBER=%tracknr%" -T "GENRE=%genre%" -T "PERFORMER=%albuminterpret%" -T "COMPOSER=%composer%" %haslyrics%--tag-from-file=LYRICS="%lyricsfile%"%haslyrics% -T "ALBUMARTIST=%albumartist%" -T "DISCNUMBER=%cdnumber%" -T "TOTALDISCS=%totalcds%" -T "TOTALTRACKS=%numtracks%" -T "COMMENT=%comment%" %source% -o %dest%
TOC of the extracted CD
Track | Start | Length | Start sector | End sector
---------------------------------------------------------
1 | 0:00.00 | 2:38.46 | 0 | 11895
2 | 2:38.46 | 5:57.04 | 11896 | 38674
3 | 8:35.50 | 1:54.09 | 38675 | 47233
4 | 10:29.59 | 2:27.70 | 47234 | 58328
5 | 12:57.54 | 2:36.41 | 58329 | 70069
6 | 15:34.20 | 2:06.49 | 70070 | 79568
7 | 17:40.69 | 1:23.74 | 79569 | 85867
8 | 19:04.68 | 1:41.43 | 85868 | 93485
9 | 20:46.36 | 2:43.03 | 93486 | 105713
10 | 23:29.39 | 4:57.09 | 105714 | 127997
11 | 28:26.48 | 2:40.50 | 127998 | 140047
12 | 31:07.23 | 3:36.27 | 140048 | 156274
13 | 34:43.50 | 1:43.44 | 156275 | 164043
14 | 36:27.19 | 6:27.25 | 164044 | 193093
15 | 42:54.44 | 2:24.70 | 193094 | 203963
16 | 45:19.39 | 1:59.54 | 203964 | 212942
17 | 47:19.18 | 2:04.33 | 212943 | 222275
18 | 49:23.51 | 3:02.07 | 222276 | 235932
19 | 52:25.58 | 3:30.17 | 235933 | 251699
Track 1
Filename G:\_MUSIC ALL\Mikolaj Trzaska - Don't Leave Us Home Alone (2010) [FLAC]\01 - Don't Leave Us Home Alone.wav
Pre-gap length 0:00:02.00
Peak level 73.1 %
Extraction speed 1.7 X
Track quality 100.0 %
Test CRC 1308FA31
Copy CRC 1308FA31
Track not present in AccurateRip database
Copy OK
Track 2
Filename G:\_MUSIC ALL\Mikolaj Trzaska - Don't Leave Us Home Alone (2010) [FLAC]\02 - The Last Three Cookies.wav
Peak level 67.2 %
Extraction speed 2.1 X
Track quality 100.0 %
Test CRC F51F7288
Copy CRC F51F7288
Track not present in AccurateRip database
Copy OK
Track 3
Filename G:\_MUSIC ALL\Mikolaj Trzaska - Don't Leave Us Home Alone (2010) [FLAC]\03 - He Could Hear Trees Grow.wav
Peak level 50.6 %
Extraction speed 1.9 X
Track quality 100.0 %
Test CRC 4CDFD7C9
Copy CRC 4CDFD7C9
Track not present in AccurateRip database
Copy OK
Track 4
Filename G:\_MUSIC ALL\Mikolaj Trzaska - Don't Leave Us Home Alone (2010) [FLAC]\04 - A Man Inside a Knight.wav
Peak level 52.6 %
Extraction speed 2.1 X
Track quality 100.0 %
Test CRC 80461BC5
Copy CRC 80461BC5
Track not present in AccurateRip database
Copy OK
Track 5
Filename G:\_MUSIC ALL\Mikolaj Trzaska - Don't Leave Us Home Alone (2010) [FLAC]\05 - He Saw Them Get In, But Couldn't Do Anything.wav
Peak level 52.0 %
Extraction speed 2.2 X
Track quality 100.0 %
Test CRC 5FAA4F7C
Copy CRC 5FAA4F7C
Track not present in AccurateRip database
Copy OK
Track 6
Filename G:\_MUSIC ALL\Mikolaj Trzaska - Don't Leave Us Home Alone (2010) [FLAC]\06 - Friend, Brother, Hero.wav
Peak level 60.5 %
Extraction speed 2.2 X
Track quality 100.0 %
Test CRC 38AD775A
Copy CRC 38AD775A
Track not present in AccurateRip database
Copy OK
Track 7
Filename G:\_MUSIC ALL\Mikolaj Trzaska - Don't Leave Us Home Alone (2010) [FLAC]\07 - Smoke Was Gathering Under The Eyelids.wav
Peak level 55.0 %
Extraction speed 1.2 X
Track quality 99.8 %
Test CRC 5E3C39D8
Copy CRC 5E3C39D8
Track not present in AccurateRip database
Copy OK
Track 8
Filename G:\_MUSIC ALL\Mikolaj Trzaska - Don't Leave Us Home Alone (2010) [FLAC]\08 - Eric, Leave The Lights On When You Leave.wav
Peak level 43.6 %
Extraction speed 1.4 X
Track quality 99.8 %
Test CRC 2A20D1B2
Copy CRC 2A20D1B2
Track not present in AccurateRip database
Copy OK
Track 9
Filename G:\_MUSIC ALL\Mikolaj Trzaska - Don't Leave Us Home Alone (2010) [FLAC]\09 - Quicksilver Child.wav
Peak level 60.3 %
Extraction speed 2.5 X
Track quality 100.0 %
Test CRC 87064B3E
Copy CRC 87064B3E
Track not present in AccurateRip database
Copy OK
Track 10
Filename G:\_MUSIC ALL\Mikolaj Trzaska - Don't Leave Us Home Alone (2010) [FLAC]\10 - To Stand On Tiptoe.wav
Peak level 59.5 %
Extraction speed 2.3 X
Track quality 99.9 %
Test CRC 66057740
Copy CRC 66057740
Track not present in AccurateRip database
Copy OK
Track 11
Filename G:\_MUSIC ALL\Mikolaj Trzaska - Don't Leave Us Home Alone (2010) [FLAC]\11 - Stroking a Dragon's Muzzle.wav
Peak level 53.2 %
Extraction speed 1.9 X
Track quality 99.9 %
Test CRC 8C39E608
Copy CRC 8C39E608
Track not present in AccurateRip database
Copy OK
Track 12
Filename G:\_MUSIC ALL\Mikolaj Trzaska - Don't Leave Us Home Alone (2010) [FLAC]\12 - Cleaning Using Stardust.wav
Peak level 61.4 %
Extraction speed 3.0 X
Track quality 100.0 %
Test CRC 707E28DA
Copy CRC 707E28DA
Track not present in AccurateRip database
Copy OK
Track 13
Filename G:\_MUSIC ALL\Mikolaj Trzaska - Don't Leave Us Home Alone (2010) [FLAC]\13 - Between The Ship's Ports.wav
Peak level 42.4 %
Extraction speed 1.7 X
Track quality 99.8 %
Test CRC 91FBA32C
Copy CRC 91FBA32C
Track not present in AccurateRip database
Copy OK
Track 14
Filename G:\_MUSIC ALL\Mikolaj Trzaska - Don't Leave Us Home Alone (2010) [FLAC]\14 - Don't Talk To Me When I'm Driving.wav
Peak level 77.8 %
Extraction speed 3.4 X
Track quality 100.0 %
Test CRC 83DF5A69
Copy CRC 83DF5A69
Track not present in AccurateRip database
Copy OK
Track 15
Filename G:\_MUSIC ALL\Mikolaj Trzaska - Don't Leave Us Home Alone (2010) [FLAC]\15 - Watermarks.wav
Peak level 59.3 %
Extraction speed 3.1 X
Track quality 100.0 %
Test CRC 63E8BE75
Copy CRC 63E8BE75
Track not present in AccurateRip database
Copy OK
Track 16
Filename G:\_MUSIC ALL\Mikolaj Trzaska - Don't Leave Us Home Alone (2010) [FLAC]\16 - He Understood How The Dog Operates.wav
Peak level 57.2 %
Extraction speed 3.0 X
Track quality 100.0 %
Test CRC 672603C0
Copy CRC 672603C0
Track not present in AccurateRip database
Copy OK
Track 17
Filename G:\_MUSIC ALL\Mikolaj Trzaska - Don't Leave Us Home Alone (2010) [FLAC]\17 - Hands Tied With a Hair Band.wav
Peak level 87.3 %
Extraction speed 3.1 X
Track quality 100.0 %
Test CRC 917641AA
Copy CRC 917641AA
Track not present in AccurateRip database
Copy OK
Track 18
Filename G:\_MUSIC ALL\Mikolaj Trzaska - Don't Leave Us Home Alone (2010) [FLAC]\18 - His Heart Was His Stove Fuel.wav
Peak level 55.4 %
Extraction speed 3.3 X
Track quality 100.0 %
Test CRC E0FAF452
Copy CRC E0FAF452
Track not present in AccurateRip database
Copy OK
Track 19
Filename G:\_MUSIC ALL\Mikolaj Trzaska - Don't Leave Us Home Alone (2010) [FLAC]\19 - The Pigglet Is Remembering Its Life.wav
Peak level 63.2 %
Extraction speed 3.5 X
Track quality 100.0 %
Test CRC 153EEA8E
Copy CRC 153EEA8E
Track not present in AccurateRip database
Copy OK
None of the tracks are present in the AccurateRip database
No errors occurred
End of status report
---- CUETools DB Plugin V2.1.3
[CTDB TOCID: 6l5SqCzY0ZiqUnFRQE8AfdRy0vA-] disk not present in database, Submit result: 6l5SqCzY0ZiqUnFRQE8AfdRy0vA- has been uploaded
==== Log checksum 47DD2F63795B9895E40812AF39F3A287DF5F5F794946BB83692CBD4EBC35C834 ====
 
Содержание индексной карты (.CUE)
REM GENRE Jazz
REM DATE 2011
REM DISCID 140D1C13
REM COMMENT "ExactAudioCopy v1.0b3"
PERFORMER "Mikolaj Trzaska & Tomasz Szwelnik"
TITLE "Don't Leave Us Home Alone"
FILE "01 - Don't Leave Us Home Alone.wav" WAVE
TRACK 01 AUDIO
TITLE "Don't Leave Us Home Alone"
PERFORMER "Mikolaj Trzaska & Tomasz Szwelnik"
INDEX 01 00:00:00
FILE "02 - The Last Three Cookies.wav" WAVE
TRACK 02 AUDIO
TITLE "The Last Three Cookies"
PERFORMER "Mikolaj Trzaska & Tomasz Szwelnik"
INDEX 01 00:00:00
FILE "03 - He Could Hear Trees Grow.wav" WAVE
TRACK 03 AUDIO
TITLE "He Could Hear Trees Grow"
PERFORMER "Mikolaj Trzaska & Tomasz Szwelnik"
INDEX 01 00:00:00
FILE "04 - A Man Inside a Knight.wav" WAVE
TRACK 04 AUDIO
TITLE "A Man Inside a Knight"
PERFORMER "Mikolaj Trzaska & Tomasz Szwelnik"
INDEX 01 00:00:00
FILE "05 - He Saw Them Get In, But Couldn't Do Anything.wav" WAVE
TRACK 05 AUDIO
TITLE "He Saw Them Get In, But Couldn't Do Anything"
PERFORMER "Mikolaj Trzaska & Tomasz Szwelnik"
INDEX 01 00:00:00
FILE "06 - Friend, Brother, Hero.wav" WAVE
TRACK 06 AUDIO
TITLE "Friend, Brother, Hero"
PERFORMER "Mikolaj Trzaska & Tomasz Szwelnik"
INDEX 01 00:00:00
FILE "07 - Smoke Was Gathering Under The Eyelids.wav" WAVE
TRACK 07 AUDIO
TITLE "Smoke Was Gathering Under The Eyelids"
PERFORMER "Mikolaj Trzaska & Tomasz Szwelnik"
INDEX 01 00:00:00
FILE "08 - Eric, Leave The Lights On When You Leave.wav" WAVE
TRACK 08 AUDIO
TITLE "Eric, Leave The Lights On When You Leave"
PERFORMER "Mikolaj Trzaska & Tomasz Szwelnik"
INDEX 01 00:00:00
FILE "09 - Quicksilver Child.wav" WAVE
TRACK 09 AUDIO
TITLE "Quicksilver Child"
PERFORMER "Mikolaj Trzaska & Tomasz Szwelnik"
INDEX 01 00:00:00
FILE "10 - To Stand On Tiptoe.wav" WAVE
TRACK 10 AUDIO
TITLE "To Stand On Tiptoe"
PERFORMER "Mikolaj Trzaska & Tomasz Szwelnik"
INDEX 01 00:00:00
FILE "11 - Stroking a Dragon's Muzzle.wav" WAVE
TRACK 11 AUDIO
TITLE "Stroking a Dragon's Muzzle"
PERFORMER "Mikolaj Trzaska & Tomasz Szwelnik"
INDEX 01 00:00:00
FILE "12 - Cleaning Using Stardust.wav" WAVE
TRACK 12 AUDIO
TITLE "Cleaning Using Stardust"
PERFORMER "Mikolaj Trzaska & Tomasz Szwelnik"
INDEX 01 00:00:00
FILE "13 - Between The Ship's Ports.wav" WAVE
TRACK 13 AUDIO
TITLE "Between The Ship's Ports"
PERFORMER "Mikolaj Trzaska & Tomasz Szwelnik"
INDEX 01 00:00:00
FILE "14 - Don't Talk To Me When I'm Driving.wav" WAVE
TRACK 14 AUDIO
TITLE "Don't Talk To Me When I'm Driving"
PERFORMER "Mikolaj Trzaska & Tomasz Szwelnik"
INDEX 01 00:00:00
FILE "15 - Watermarks.wav" WAVE
TRACK 15 AUDIO
TITLE "Watermarks"
PERFORMER "Mikolaj Trzaska & Tomasz Szwelnik"
INDEX 01 00:00:00
FILE "16 - He Understood How The Dog Operates.wav" WAVE
TRACK 16 AUDIO
TITLE "He Understood How The Dog Operates"
PERFORMER "Mikolaj Trzaska & Tomasz Szwelnik"
INDEX 01 00:00:00
FILE "17 - Hands Tied With a Hair Band.wav" WAVE
TRACK 17 AUDIO
TITLE "Hands Tied With a Hair Band"
PERFORMER "Mikolaj Trzaska & Tomasz Szwelnik"
INDEX 01 00:00:00
FILE "18 - His Heart Was His Stove Fuel.wav" WAVE
TRACK 18 AUDIO
TITLE "His Heart Was His Stove Fuel"
PERFORMER "Mikolaj Trzaska & Tomasz Szwelnik"
INDEX 01 00:00:00
FILE "19 - The Pigglet Is Remembering Its Life.wav" WAVE
TRACK 19 AUDIO
TITLE "The Pigglet Is Remembering Its Life"
PERFORMER "Mikolaj Trzaska & Tomasz Szwelnik"
INDEX 01 00:00:00
Доп. информация:
Recorded At – Studio Radia Gdańsk 2010
 
Состав
Piano [Prepared] – Tomasz Szwelnik
Producer, Alto Saxophone, Bass Clarinet – Mikołaj Trzaska
Any questions -> support@pro-jazz.com. По всем вопросам пишите -> support@pro-jazz.com
07:08
153
Нет комментариев. Ваш будет первым!