Вы используете незарегистрированную версию компонента "Вкладки"!

Поиск

(Free Jazz, Free Improvisation) Achim Jaroschek, Peter Brotzmann - Subtle Twister - 2001, FLAC (tracks+.cue), lossless

(Free Jazz, Free Improvisation) Achim Jaroschek, Peter Brotzmann - Subtle Twister - 2001, FLAC (tracks+.cue), lossless
Треклист:
Achim Jaroschek, Peter Brötzmann / Subtle Twister
Жанр: Free Jazz, Free Improvisation
Страна-производитель диска: Germany
Год издания: 2001
Издатель (лейбл): Konnex Records
Номер по каталогу: KCD 5093
Аудиокодек: FLAC (*.flac)
Тип рипа: tracks+.cue
Битрейт аудио: lossless
Продолжительность: 73:27
Источник (релизер): whatcd
Наличие сканов в содержимом раздачи: нет
Треклист:
1 Dream Censor (Written-By – Achim Jaroschek) 14:56
2 Watching And Waiting (Written-By – Peter Brötzmann) 14:56
3 The Ear Tells The Heart (Ndebele) (Written-By – Peter Brötzmann) 7:48
4 Subtle Twister (Written-By – Jaroschek, Brötzmann) 22:36
5 Windigo (Written-By – Achim Jaroschek) 13:01
 
Лог создания рипа
X Lossless Decoder version 20121222 (142.2)
XLD extraction logfile from 2013-01-02 03:44:43 +0400
Achim Jaroschek, Peter Brötzmann / Subtle Twister
Used drive : HL-DT-ST DVDRW GX30N (revision RP09)
Media type : Pressed CD
Ripper mode : XLD Secure Ripper
Disable audio cache : OK for the drive with a cache less than 1375KiB
Make use of C2 pointers : NO
Read offset correction : 6
Max retry count : 20
Gap status : Analyzed, Appended
TOC of the extracted CD
Track | Start | Length | Start sector | End sector
---------------------------------------------------------
1 | 00:00:00 | 14:58:08 | 0 | 67357
2 | 14:58:08 | 14:58:23 | 67358 | 134730
3 | 29:56:31 | 07:50:64 | 134731 | 170044
4 | 37:47:20 | 22:38:66 | 170045 | 271960
5 | 60:26:11 | 13:01:62 | 271961 | 330597
AccurateRip Summary (DiscID: 000edf65-00459e33-4a113705)
Track 01 : OK (v2, confidence 2/2)
Track 02 : OK (v2, confidence 2/2)
Track 03 : OK (v2, confidence 2/2)
Track 04 : OK (v2, confidence 2/2)
Track 05 : OK (v2, confidence 2/2)
->All tracks accurately ripped.
All Tracks
Album gain : -8.87 dB
Peak : 0.975922
Statistics
Read error : 0
Jitter error (maybe fixed) : 0
Retry sector count : 0
Damaged sector count : 0
Track 01
Filename : /Users/anch/Music/FLAC/Achim Jaroschek, Peter Brötzmann - 1999 - Subtle Twister [FLAC]/01 - Dream Censor.flac
/Users/anch/Music/FLAC/Achim Jaroschek, Peter Brötzmann - 1999 - Subtle Twister [MP3 320]/01 - Dream Censor.mp3
/Users/anch/Music/FLAC/Achim Jaroschek, Peter Brötzmann - 1999 - Subtle Twister [MP3 V0]/01 - Dream Censor.mp3
Pre-gap length : 00:02:00
Track gain : -8.76 dB
Peak : 0.890198
CRC32 hash (test run) : 8679BD3D
CRC32 hash : 8679BD3D
CRC32 hash (skip zero) : 2A368432
AccurateRip v1 signature : 38667C62
AccurateRip v2 signature : E39D4211
->Accurately ripped (v2, confidence 2/2)
Statistics
Read error : 0
Jitter error (maybe fixed) : 0
Retry sector count : 0
Damaged sector count : 0
Track 02
Filename : /Users/anch/Music/FLAC/Achim Jaroschek, Peter Brötzmann - 1999 - Subtle Twister [FLAC]/02 - Watching And Waiting.flac
/Users/anch/Music/FLAC/Achim Jaroschek, Peter Brötzmann - 1999 - Subtle Twister [MP3 320]/02 - Watching And Waiting.mp3
/Users/anch/Music/FLAC/Achim Jaroschek, Peter Brötzmann - 1999 - Subtle Twister [MP3 V0]/02 - Watching And Waiting.mp3
Pre-gap length : 00:02:00
Track gain : -8.47 dB
Peak : 0.894470
CRC32 hash (test run) : 22176612
CRC32 hash : 22176612
CRC32 hash (skip zero) : 0ECDDCC6
AccurateRip v1 signature : 1881B126
AccurateRip v2 signature : 29841890
->Accurately ripped (v2, confidence 2/2)
Statistics
Read error : 0
Jitter error (maybe fixed) : 0
Retry sector count : 0
Damaged sector count : 0
Track 03
Filename : /Users/anch/Music/FLAC/Achim Jaroschek, Peter Brötzmann - 1999 - Subtle Twister [FLAC]/03 - The Ear Tells The Heart.flac
/Users/anch/Music/FLAC/Achim Jaroschek, Peter Brötzmann - 1999 - Subtle Twister [MP3 320]/03 - The Ear Tells The Heart.mp3
/Users/anch/Music/FLAC/Achim Jaroschek, Peter Brötzmann - 1999 - Subtle Twister [MP3 V0]/03 - The Ear Tells The Heart.mp3
Pre-gap length : 00:02:00
Track gain : -10.14 dB
Peak : 0.947662
CRC32 hash (test run) : 0F9A5CC5
CRC32 hash : 0F9A5CC5
CRC32 hash (skip zero) : E305AA5B
AccurateRip v1 signature : 028E46A6
AccurateRip v2 signature : F22712F8
->Accurately ripped (v2, confidence 2/2)
Statistics
Read error : 0
Jitter error (maybe fixed) : 0
Retry sector count : 0
Damaged sector count : 0
Track 04
Filename : /Users/anch/Music/FLAC/Achim Jaroschek, Peter Brötzmann - 1999 - Subtle Twister [FLAC]/04 - Subtle Twister.flac
/Users/anch/Music/FLAC/Achim Jaroschek, Peter Brötzmann - 1999 - Subtle Twister [MP3 320]/04 - Subtle Twister.mp3
/Users/anch/Music/FLAC/Achim Jaroschek, Peter Brötzmann - 1999 - Subtle Twister [MP3 V0]/04 - Subtle Twister.mp3
Pre-gap length : 00:02:00
Track gain : -9.23 dB
Peak : 0.895691
CRC32 hash (test run) : AFD50164
CRC32 hash : AFD50164
CRC32 hash (skip zero) : FC051865
AccurateRip v1 signature : 94AC2523
AccurateRip v2 signature : C5C26F25
->Accurately ripped (v2, confidence 2/2)
Statistics
Read error : 0
Jitter error (maybe fixed) : 0
Retry sector count : 0
Damaged sector count : 0
Track 05
Filename : /Users/anch/Music/FLAC/Achim Jaroschek, Peter Brötzmann - 1999 - Subtle Twister [FLAC]/05 - Windigo.flac
/Users/anch/Music/FLAC/Achim Jaroschek, Peter Brötzmann - 1999 - Subtle Twister [MP3 320]/05 - Windigo.mp3
/Users/anch/Music/FLAC/Achim Jaroschek, Peter Brötzmann - 1999 - Subtle Twister [MP3 V0]/05 - Windigo.mp3
Pre-gap length : 00:02:00
Track gain : -7.98 dB
Peak : 0.975922
CRC32 hash (test run) : 864600E5
CRC32 hash : 864600E5
CRC32 hash (skip zero) : 31B5B27D
AccurateRip v1 signature : 9FF6A1BF
AccurateRip v2 signature : B994CF1C
->Accurately ripped (v2, confidence 2/2)
Statistics
Read error : 0
Jitter error (maybe fixed) : 0
Retry sector count : 0
Damaged sector count : 0
No errors occurred
End of status report
 
Содержание индексной карты (.CUE)
TITLE "Subtle Twister"
PERFORMER "Achim Jaroschek, Peter Brötzmann"
REM GENRE "Free Jazz"
REM DATE "1999"
REM DISCID 4A113705
REM REPLAYGAIN_ALBUM_GAIN -8.87 dB
REM REPLAYGAIN_ALBUM_PEAK 0.975922
FILE "01 - Dream Censor.flac" WAVE
TRACK 01 AUDIO
TITLE "Dream Censor"
PERFORMER "Achim Jaroschek, Peter Brötzmann"
REM REPLAYGAIN_TRACK_GAIN -8.76 dB
REM REPLAYGAIN_TRACK_PEAK 0.890198
INDEX 01 00:00:00
TRACK 02 AUDIO
TITLE "Watching And Waiting"
PERFORMER "Achim Jaroschek, Peter Brötzmann"
REM REPLAYGAIN_TRACK_GAIN -8.47 dB
REM REPLAYGAIN_TRACK_PEAK 0.894470
INDEX 00 14:56:08
FILE "02 - Watching And Waiting.flac" WAVE
INDEX 01 00:00:00
TRACK 03 AUDIO
TITLE "The Ear Tells The Heart"
PERFORMER "Achim Jaroschek, Peter Brötzmann"
REM REPLAYGAIN_TRACK_GAIN -10.14 dB
REM REPLAYGAIN_TRACK_PEAK 0.947662
INDEX 00 14:56:23
FILE "03 - The Ear Tells The Heart.flac" WAVE
INDEX 01 00:00:00
TRACK 04 AUDIO
TITLE "Subtle Twister"
PERFORMER "Achim Jaroschek, Peter Brötzmann"
REM REPLAYGAIN_TRACK_GAIN -9.23 dB
REM REPLAYGAIN_TRACK_PEAK 0.895691
INDEX 00 07:48:64
FILE "04 - Subtle Twister.flac" WAVE
INDEX 01 00:00:00
TRACK 05 AUDIO
TITLE "Windigo"
PERFORMER "Achim Jaroschek, Peter Brötzmann"
REM REPLAYGAIN_TRACK_GAIN -7.98 dB
REM REPLAYGAIN_TRACK_PEAK 0.975922
INDEX 00 22:36:66
FILE "05 - Windigo.flac" WAVE
INDEX 01 00:00:00
Доп. информация: Recorded live at the Loft zu Köln, March 16th 1999
 
Состав
Grand Piano [By Steinway & Sons, Model D] – Achim Jaroschek
Tenor Saxophone, Tárogató, Alto Clarinet, Bass Clarinet – Peter Brötzmann
Any questions -> support@pro-jazz.com. По всем вопросам пишите -> support@pro-jazz.com
07:08
159
Нет комментариев. Ваш будет первым!