Вы используете незарегистрированную версию компонента "Вкладки"!

Поиск

(Soundtrack, Free Improvisation) Mikolaj Trzaska - Dom Zly (Dark House) - 2011, FLAC (tracks+.cue), lossless

(Soundtrack, Free Improvisation) Mikolaj Trzaska - Dom Zly (Dark House) - 2011, FLAC (tracks+.cue), lossless
Треклист:
Mikołaj Trzaska / Dom Zły (Dark House)
Жанр: Soundtrack, Free Improvisation
Страна-производитель диска: Poland
Год издания: 2011
Издатель (лейбл): Kilogram Records
Номер по каталогу: 018
Аудиокодек: FLAC (*.flac)
Тип рипа: tracks+.cue
Битрейт аудио: lossless
Продолжительность: 46:28
Источник (релизер): whatcd
Наличие сканов в содержимом раздачи: нет
Треклист:
1 Snowflake / Deadwife / Illegal Travel
2 Toilet Fear / Drink Driving Dance
3 Yeast Business
4 Snow Romance / Burning Tail
5 After Explosion
6 Koschma / Volga Tune
7 Killers On The Snow / Retrospace / Amundsen's Ship "fram" / Hit And Sunlight
8 Flicker / Cutlery Attack / Arsonist
9 Scream Of Archers March Of Sorrow / Chasing In Deep Snow
10 Dark House / Shining / Worse / ......... / Little Better
 
Лог создания рипа
Exact Audio Copy V1.0 beta 3 from 29. August 2011
EAC extraction logfile from 29. December 2012, 22:23
Mikolaj Trzaska / Dom Zly [Dark House]
Used drive : SlimtypeeSAU108 8 Adapter: 2 ID: 0
Read mode : Secure
Utilize accurate stream : Yes
Defeat audio cache : Yes
Make use of C2 pointers : No
Read offset correction : 6
Overread into Lead-In and Lead-Out : No
Fill up missing offset samples with silence : Yes
Delete leading and trailing silent blocks : No
Null samples used in CRC calculations : Yes
Used interface : Native Win32 interface for Win NT & 2000
Gap handling : Appended to previous track
Used output format : User Defined Encoder
Selected bitrate : 1024 kBit/s
Quality : High
Add ID3 tag : No
Command line compressor : C:\Program Files (x86)\Exact Audio Copy\Flac\flac.exe
Additional command line options : -8 -V -T "ARTIST=%artist%" -T "TITLE=%title%" -T "ALBUM=%albumtitle%" -T "DATE=%year%" -T "TRACKNUMBER=%tracknr%" -T "GENRE=%genre%" -T "PERFORMER=%albuminterpret%" -T "COMPOSER=%composer%" %haslyrics%--tag-from-file=LYRICS="%lyricsfile%"%haslyrics% -T "ALBUMARTIST=%albumartist%" -T "DISCNUMBER=%cdnumber%" -T "TOTALDISCS=%totalcds%" -T "TOTALTRACKS=%numtracks%" -T "COMMENT=%comment%" %source% -o %dest%
TOC of the extracted CD
Track | Start | Length | Start sector | End sector
---------------------------------------------------------
1 | 0:00.00 | 6:16.54 | 0 | 28253
2 | 6:16.54 | 2:45.08 | 28254 | 40636
3 | 9:01.62 | 5:14.53 | 40637 | 64239
4 | 14:16.40 | 5:16.54 | 64240 | 87993
5 | 19:33.19 | 2:37.38 | 87994 | 99806
6 | 22:10.57 | 2:09.45 | 99807 | 109526
7 | 24:20.27 | 4:26.72 | 109527 | 129548
8 | 28:47.24 | 3:33.07 | 129549 | 145530
9 | 32:20.31 | 4:48.66 | 145531 | 167196
10 | 37:09.22 | 9:18.74 | 167197 | 209120
Track 1
Filename G:\_MUSIC ALL\Mikolaj Trzaska - Dom Zly (2010) [FLAC]\01 - 1 Snowflake,Deadwife,Illegal Travel.wav
Pre-gap length 0:00:02.00
Peak level 89.1 %
Extraction speed 1.2 X
Track quality 100.0 %
Test CRC E34750AA
Copy CRC E34750AA
Track not present in AccurateRip database
Copy OK
Track 2
Filename G:\_MUSIC ALL\Mikolaj Trzaska - Dom Zly (2010) [FLAC]\02 - 2 ToiletFear,DrunkDriving Dance.wav
Peak level 89.1 %
Extraction speed 1.2 X
Track quality 100.0 %
Test CRC 90535432
Copy CRC 90535432
Track not present in AccurateRip database
Copy OK
Track 3
Filename G:\_MUSIC ALL\Mikolaj Trzaska - Dom Zly (2010) [FLAC]\03 - 3 Yeast Business.wav
Peak level 89.1 %
Extraction speed 1.3 X
Track quality 99.9 %
Test CRC 45539724
Copy CRC 45539724
Track not present in AccurateRip database
Copy OK
Track 4
Filename G:\_MUSIC ALL\Mikolaj Trzaska - Dom Zly (2010) [FLAC]\04 - 4 Snow Romance,Burning Tail.wav
Peak level 89.1 %
Extraction speed 1.4 X
Track quality 99.9 %
Test CRC 25826E47
Copy CRC 25826E47
Track not present in AccurateRip database
Copy OK
Track 5
Filename G:\_MUSIC ALL\Mikolaj Trzaska - Dom Zly (2010) [FLAC]\05 - 5 After Explosion.wav
Peak level 64.2 %
Extraction speed 1.5 X
Track quality 100.0 %
Test CRC 971FC715
Copy CRC 971FC715
Track not present in AccurateRip database
Copy OK
Track 6
Filename G:\_MUSIC ALL\Mikolaj Trzaska - Dom Zly (2010) [FLAC]\06 - 6 Koschmar,Volga Tune.wav
Peak level 89.1 %
Extraction speed 1.5 X
Track quality 100.0 %
Test CRC 6D8EDBB0
Copy CRC 6D8EDBB0
Track not present in AccurateRip database
Copy OK
Track 7
Filename G:\_MUSIC ALL\Mikolaj Trzaska - Dom Zly (2010) [FLAC]\07 - 7 Killers On The Snow,Retrospace,Amundsen's Ship ''Frame'',Hit And Sunlight.wav
Peak level 89.1 %
Extraction speed 1.7 X
Track quality 100.0 %
Test CRC D1FAAEDD
Copy CRC D1FAAEDD
Track not present in AccurateRip database
Copy OK
Track 8
Filename G:\_MUSIC ALL\Mikolaj Trzaska - Dom Zly (2010) [FLAC]\08 - 8 Flicker,Cutler Attack,Arsonist.wav
Peak level 89.1 %
Extraction speed 1.5 X
Track quality 99.9 %
Test CRC B87F95DA
Copy CRC B87F95DA
Track not present in AccurateRip database
Copy OK
Track 9
Filename G:\_MUSIC ALL\Mikolaj Trzaska - Dom Zly (2010) [FLAC]\09 - 9 Bloodflake,March Of Sorrow,Chasing In Deep Snow.wav
Peak level 89.1 %
Extraction speed 1.9 X
Track quality 100.0 %
Test CRC DABCFC18
Copy CRC DABCFC18
Track not present in AccurateRip database
Copy OK
Track 10
Filename G:\_MUSIC ALL\Mikolaj Trzaska - Dom Zly (2010) [FLAC]\10 - 10 Dark House,Shining,Worse,.....,Little Better.wav
Peak level 89.1 %
Extraction speed 2.2 X
Track quality 100.0 %
Test CRC 7E4E9D5B
Copy CRC 7E4E9D5B
Track not present in AccurateRip database
Copy OK
None of the tracks are present in the AccurateRip database
No errors occurred
End of status report
---- CUETools DB Plugin V2.1.3
[CTDB TOCID: eAAMjTcS8t4912E7xhaRx_SdWyo-] disk not present in database, Submit result: eAAMjTcS8t4912E7xhaRx_SdWyo- has been uploaded
==== Log checksum AF66E905A75B91BF3381EC8B4EF7C232864BAFEAEC287D16ABFCA9D7DD62D1C6 ====
 
Содержание индексной карты (.CUE)
REM GENRE Jazz
REM DATE 2010
REM DISCID 840AE40A
REM COMMENT "ExactAudioCopy v1.0b3"
PERFORMER "Mikolaj Trzaska"
TITLE "Dom Zly [Dark House] "
FILE "01 - 1 Snowflake,Deadwife,Illegal Travel.wav" WAVE
TRACK 01 AUDIO
TITLE "1 Snowflake/Deadwife/Illegal Travel"
PERFORMER "Mikolaj Trzaska"
INDEX 01 00:00:00
FILE "02 - 2 ToiletFear,DrunkDriving Dance.wav" WAVE
TRACK 02 AUDIO
TITLE "2 ToiletFear/DrunkDriving Dance"
PERFORMER "Mikolaj Trzaska"
INDEX 01 00:00:00
FILE "03 - 3 Yeast Business.wav" WAVE
TRACK 03 AUDIO
TITLE "3 Yeast Business"
PERFORMER "Mikolaj Trzaska"
INDEX 01 00:00:00
FILE "04 - 4 Snow Romance,Burning Tail.wav" WAVE
TRACK 04 AUDIO
TITLE "4 Snow Romance/Burning Tail"
PERFORMER "Mikolaj Trzaska"
INDEX 01 00:00:00
FILE "05 - 5 After Explosion.wav" WAVE
TRACK 05 AUDIO
TITLE "5 After Explosion"
PERFORMER "Mikolaj Trzaska"
INDEX 01 00:00:00
FILE "06 - 6 Koschmar,Volga Tune.wav" WAVE
TRACK 06 AUDIO
TITLE "6 Koschmar/Volga Tune"
PERFORMER "Mikolaj Trzaska"
INDEX 01 00:00:00
FILE "07 - 7 Killers On The Snow,Retrospace,Amundsen's Ship ''Frame'',Hit And Sunlight.wav" WAVE
TRACK 07 AUDIO
TITLE "7 Killers On The Snow/Retrospace/Amundsen's Ship 'Frame'/Hit And Sunlight"
PERFORMER "Mikolaj Trzaska"
INDEX 01 00:00:00
FILE "08 - 8 Flicker,Cutler Attack,Arsonist.wav" WAVE
TRACK 08 AUDIO
TITLE "8 Flicker/Cutler Attack/Arsonist"
PERFORMER "Mikolaj Trzaska"
INDEX 01 00:00:00
FILE "09 - 9 Bloodflake,March Of Sorrow,Chasing In Deep Snow.wav" WAVE
TRACK 09 AUDIO
TITLE "9 Bloodflake/March Of Sorrow/Chasing In Deep Snow"
PERFORMER "Mikolaj Trzaska"
INDEX 01 00:00:00
FILE "10 - 10 Dark House,Shining,Worse,.....,Little Better.wav" WAVE
TRACK 10 AUDIO
TITLE "10 Dark House/Shining/Worse/...../Little Better"
PERFORMER "Mikolaj Trzaska"
INDEX 01 00:00:00
Доп. информация: Recorded 21 & 22 March 2009.
 
Состав
Alto Saxophone, Bass Clarinet, Tárogató, Organ [Farfisa], Keyboards – Mikołaj Trzaska
Cello [5-string] – Clementine Gasser
Double Bass – Clayton Thomas
Drums, Percussion – Michael Zerang
Piano, Piano [Prepared] – Tomasz Szwelnik
Any questions -> support@pro-jazz.com. По всем вопросам пишите -> support@pro-jazz.com
07:07
133
Нет комментариев. Ваш будет первым!