Вы используете незарегистрированную версию компонента "Вкладки"!

Поиск

(Free Improvisation, Free Jazz) Extraordinary Popular Delusions (Jim Baker, Mars Williams, Brian Sandstrom, Steve Hunt) - Apocryphal Fire In The Warehouse, And Other - 2011, FLAC (image+.cue), lossless

(Free Improvisation, Free Jazz) Extraordinary Popular Delusions (Jim Baker, Mars Williams, Brian Sandstrom, Steve Hunt) - Apocryphal Fire In The Warehouse, And Other - 2011, FLAC (image+.cue), lossless
Треклист:
Extraordinary Popular Delusions / Apocryphal Fire In The Warehouse, And Other
Жанр: Free Improvisation, Free Jazz
Страна-производитель диска: US
Год издания: 2011
Издатель (лейбл): Harmonic Convergence
Номер по каталогу: 002
Аудиокодек: FLAC (*.flac)
Тип рипа: image+.cue
Битрейт аудио: lossless
Продолжительность: 47:58
Источник (релизер): cd
Наличие сканов в содержимом раздачи: нет
Треклист:
1 Cold Child, With Fedora
2 Treadmill To Obliviousness
3 Screen Door Slam
4 Aprocryphal Fire In The Warehouse, And Other Explanations; Juneteenth Transliterated Into Ideograms
5 ...Except These Wood-Nymphs Are Made Of Styrofoam...
6 Contention; (Or: Scattered Amidst The Scattergrams)
7 "He Kept In Touch With The Sea By Telephone"
 
Лог создания рипа
Exact Audio Copy V1.0 beta 2 from 29. April 2011
EAC extraction logfile from 30. April 2013, 16:13
extraordinary popular delusions / apocryphal fire in the warehouse, and other explanations
Used drive : Optiarc DVD RW AD-7170A Adapter: 0 ID: 0
Read mode : Secure
Utilize accurate stream : Yes
Defeat audio cache : Yes
Make use of C2 pointers : No
Read offset correction : 48
Overread into Lead-In and Lead-Out : No
Fill up missing offset samples with silence : Yes
Delete leading and trailing silent blocks : No
Null samples used in CRC calculations : Yes
Used interface : Native Win32 interface for Win NT & 2000
Used output format : User Defined Encoder
Selected bitrate : 320 kBit/s
Quality : High
Add ID3 tag : No
Command line compressor : C:\Program Files\Exact Audio Copy\Flac\flac.exe
Additional command line options : -V -8 -T "Date=%year%" -T "Genre=%genre%" %source%
TOC of the extracted CD
Track | Start | Length | Start sector | End sector
---------------------------------------------------------
1 | 0:00.00 | 13:13.43 | 0 | 59517
2 | 13:13.43 | 7:05.44 | 59518 | 91436
3 | 20:19.12 | 3:23.37 | 91437 | 106698
4 | 23:42.49 | 5:43.21 | 106699 | 132444
5 | 29:25.70 | 6:37.06 | 132445 | 162225
6 | 36:03.01 | 5:28.46 | 162226 | 186871
7 | 41:31.47 | 6:27.27 | 186872 | 215923
Range status and errors
Selected range
Filename K:\ЕАС\extraordinary popular delusions - apocryphal fire in the warehouse, and other explanations.wav
Peak level 100.0 %
Extraction speed 1.8 X
Range quality 100.0 %
Test CRC 4B9FBD05
Copy CRC 4B9FBD05
Copy OK
No errors occurred
AccurateRip summary
Track 1 not present in database
Track 2 not present in database
Track 3 not present in database
Track 4 not present in database
Track 5 not present in database
Track 6 not present in database
Track 7 not present in database
None of the tracks are present in the AccurateRip database
End of status report
==== Log checksum 65DF3AFF8D9D91FF6DC3265778060E37F03A32C9B897CFD5415463E7E254557D ====
 
Содержание индексной карты (.CUE)
REM GENRE Jazz
REM DATE 2011
REM DISCID 5D0B3E07
REM COMMENT "ExactAudioCopy v1.0b2"
PERFORMER "extraordinary popular delusions"
TITLE "apocryphal fire in the warehouse, and other explanations"
FILE "extraordinary popular delusions - apocryphal fire in the warehouse, and other explanations.flac" WAVE
TRACK 01 AUDIO
TITLE "cold child, with fedora"
PERFORMER "extraordinary popular delusions"
ISRC 000000000000
INDEX 01 00:00:00
TRACK 02 AUDIO
TITLE "treadmill to obliviousness"
PERFORMER "extraordinary popular delusions"
ISRC 000000000000
INDEX 00 13:09:53
INDEX 01 13:13:43
TRACK 03 AUDIO
TITLE "screen door slam"
PERFORMER "extraordinary popular delusions"
ISRC 000000000000
INDEX 00 20:15:53
INDEX 01 20:19:12
TRACK 04 AUDIO
TITLE "apocryphal fire in the warehouse, and other explanations; juneteenth translit..."
PERFORMER "extraordinary popular delusions"
ISRC 000000000000
INDEX 00 23:38:68
INDEX 01 23:42:49
TRACK 05 AUDIO
TITLE "...except these wood-nymphs are made of styrofoam..."
PERFORMER "extraordinary popular delusions"
ISRC 000000000000
INDEX 00 29:22:46
INDEX 01 29:25:70
TRACK 06 AUDIO
TITLE "contention; (or: scattered amidst the scattergrams)"
PERFORMER "extraordinary popular delusions"
ISRC 000000000000
INDEX 00 35:59:24
INDEX 01 36:03:01
TRACK 07 AUDIO
TITLE "'he kept in touch with the sea by telephone'"
PERFORMER "extraordinary popular delusions"
ISRC 000000000000
INDEX 00 41:27:71
INDEX 01 41:31:47
Доп. информация: Recorded and mixed May - June 2010 at BelAir Soundstudio and Hotti Biscotti
 
Состав
Bass, Electric Guitar – Brian Sandstrom
Drums, Percussion – Steve Hunt
Saxophone, Zither, Other [Miscellania] – Mars Williams
Synthesizer, Electric Piano, Piano – Jim Baker
По всем вопросам пишите личное сообщение пользователю M0p94ok.
11:40
158
Нет комментариев. Ваш будет первым!