Вы используете незарегистрированную версию компонента "Вкладки"!

Поиск

(Avant-Garde Jazz, Free Improvisation) VA (Peter Brotzmann, Mats Gustafsson, Ken Vandermark, Joe McPhee, Fred Lonberg-Holm, Michiyo Yagi, Jason Adasiewicz, Bill Laswell a.o.) - Long Story Short (Wels Fest.) [5 CD] - 2013, FLAC (tracks+.cue), lossless

(Avant-Garde Jazz, Free Improvisation) VA (Peter Brotzmann, Mats Gustafsson, Ken Vandermark, Joe McPhee, Fred Lonberg-Holm, Michiyo Yagi, Jason Adasiewicz, Bill Laswell a.o.) - Long Story Short (Wels Fest.) [5 CD] - 2013, FLAC (tracks+.cue), lossless
Треклист:
LONG STORY SHORT
WELS 2011 Жанр: Avant-Garde Jazz, Free Improvisation
Страна-производитель диска: Austria
Год издания: 2013
Издатель (лейбл): Trost Records
Номер по каталогу: TR112
Аудиокодек: FLAC (*.flac)
Тип рипа: tracks+.cue
Битрейт аудио: lossless
Продолжительность: 06:12:02
Источник (релизер): спасибо 6060842
Наличие сканов в содержимом раздачи: нет
 
Треклист / Исполнители
Disc 1➊ Sonore – Untitled
Ken Vandermark, Mats Gustafsson, Peter Brötzmann - reeds
➋ Chicago Tentet with John Tchicai – Untitled
John Tchicai, Ken Vandermark, Mats Gustafsson, Peter Brötzmann - reeds
Jeb Bishop, Johannes Bauer - trombones
Joe McPhee - trumpet
Per Åke Holmlander - tuba
Fredrick Lonberg-Holm - cello
Kent Kessler - bass
Paal Nilssen-Love, Michael Zerang - drums
➌ Michiyo Yagi | Okkyung Lee | Xu Fengxia – Untitled
Okkyung Lee - cello
Xu Fengxia - guzheng
Michiyo Yagi - koto (21-string, 17-string bass koto)
➍ Peter Brötzmann | Masahiko Sato | Takeo Moriyama – Untitled
Peter Brötzmann - reeds
Masahiko Sato - piano
Takeo Moriyama - drums
Disc 2➊ Joe McPhee | Maâllem Mokhtar Gania | Fredrick Lonberg-Holm | Michael Zerang – Untitled
Joe McPhee - trumpet, saxophone
Fredrick Lonberg-Holm - cello
Michael Zerang - drums
Maâllem Mokhtar Gania - guimbri
➋ Peter Brötzmann | Michiyo Yagi | Tamaya Honda –Untitled
Peter Brötzmann - reeds
Michiyo Yagi - koto (21-string, 17-string bass koto)
Tamaya Honda - drums
➌ Peter Brötzmann | Jason Adasiewicz | Sabu Toyozumi – Untitled
Peter Brötzmann - reeds
Jason Adasiewicz - vibraphone
Sabu Toyozumi - drums
➍ Dieb13 | Mats Gustafsson | Martin Siewert – Untitled
Mats Gustafsson - reeds, electronics (live)
Martin Siewert - guitar, effects (ring stinger), electronics
Dieb13 - turntables, effects (cigar box)


Disc 3➊ Keiji Haino – Untitled
Keiji Haino - electric guitar, voice
➋ Peter Brötzmann | Bill Laswell | Maâllem Mokhtar Gania | Hamid Drake – Untitled
Peter Brötzmann - reeds
Bill Laswell - electric bass
Hamid Drake - drums
Maâllem Mokhtar Gania - guimbri


Disc 4➊ Jeb Bishop | Joe McPhee | Mars Williams | Jason Adasiewicz | Kent Kessler | Tamaya Honda – Untitled
Joe McPhee - trumpet, saxophone
Jason Adasiewicz - vibraphone
Mars Williams - reeds
Jeb Bishop - trombone
Kent Kessler - bass
Tamaya Honda - drums
➋ Hairy Bones – Untitled
Peter Brötzmann - reeds
Toshinori Kondo - trumpet, electronics
Massimo Pupillo - eectric bass
Paal Nilssen-Love - drums
➌ Masahiko Sato – Untitled
Masahiko Sato - piano
➍ Chicago Tentet with Michiyo Yagi – Concert For Fukushima
Ken Vandermark, Mats Gustafsson, Peter Brötzmann - reeds
Jeb Bishop, Johannes Bauer - trombones
Joe McPhee - trumpet
Per Åke Holmlander - tuba
Fredrick Lonberg-Holm - cello
Kent Kessler - bass
Paal Nilssen-Love, Michael Zerang - drums
Michiyo Yagi - koto (21-string, 17-string bass koto)


Disc 5➊ Peter Brötzmann | Eric Revis | Nasheet Waits – Untitled
Peter Brötzmann - reeds
Eric Revis - bass
Nasheet Waits - drums
➋ DKV Trio With Mats Gustafsson | Massimo Pupillo | Paal Nilssen-Love – Untitled
Ken Vandermark, Mats Gustafsson - reeds
Massimo Pupillo - electric bass
Kent Kessler - bass
Hamid Drake, Paal Nilssen-Love - drums
➌ Full Blast (2) – Untitled
Peter Brötzmann - reeds
Marino Pliakas - electric bass
Michael Wertmüller - drums
➍ Caspar Brötzmann Massaker – Untitled
Caspar Brötzmann - guitar, voice
Eduardo Delgado-Lopez - electric bass
Danny Arnold Lommen - drums
 
Логи создания рипа
 
CD 1
X Lossless Decoder version 20130407 (143.0)
XLD extraction logfile from 2013-04-21 09:54:22 +0400
Various Artists / Long Story Short
Used drive : HL-DT-ST DVDRW GX30N (revision RP09)
Media type : Pressed CD
Ripper mode : XLD Secure Ripper
Disable audio cache : OK for the drive with a cache less than 1375KiB
Make use of C2 pointers : NO
Read offset correction : 6
Max retry count : 20
Gap status : Analyzed, Appended
TOC of the extracted CD
Track | Start | Length | Start sector | End sector
---------------------------------------------------------
1 | 00:00:00 | 06:50:42 | 0 | 30791
2 | 06:50:42 | 25:55:67 | 30792 | 147483
3 | 32:46:34 | 16:37:60 | 147484 | 222318
4 | 49:24:19 | 20:51:70 | 222319 | 316213
AccurateRip Summary
Disc not found in AccurateRip DB.
All Tracks
Album gain : -5.04 dB
Peak : 0.988678
Statistics
Read error : 0
Jitter error (maybe fixed) : 0
Retry sector count : 0
Damaged sector count : 0
Track 01
Filename : /Users/anch/Music/FLAC/2013 - Long Story Short [FLAC]/%[D]/01 - Sonore.flac
/Users/anch/Music/FLAC/2013 - Long Story Short [MP3 320]/%[D]/01 - Sonore.mp3
/Users/anch/Music/FLAC/2013 - Long Story Short [MP3 V0]/%[D]/01 - Sonore.mp3
Pre-gap length : 00:02:00
Track gain : -5.11 dB
Peak : 0.986511
CRC32 hash (test run) : 3FC680DB
CRC32 hash : 3FC680DB
CRC32 hash (skip zero) : 4AA80361
AccurateRip v1 signature : 83064863
AccurateRip v2 signature : 16EE37DF
->Track not present in AccurateRip database.
Statistics
Read error : 0
Jitter error (maybe fixed) : 0
Retry sector count : 0
Damaged sector count : 0
Track 02
Filename : /Users/anch/Music/FLAC/2013 - Long Story Short [FLAC]/%[D]/02 - Chicago Tentet, John Tchicai.flac
/Users/anch/Music/FLAC/2013 - Long Story Short [MP3 320]/%[D]/02 - Chicago Tentet, John Tchicai.mp3
/Users/anch/Music/FLAC/2013 - Long Story Short [MP3 V0]/%[D]/02 - Chicago Tentet, John Tchicai.mp3
Pre-gap length : 00:03:27
Track gain : -5.22 dB
Peak : 0.988647
CRC32 hash (test run) : 66D37406
CRC32 hash : 66D37406
CRC32 hash (skip zero) : AE828AAA
AccurateRip v1 signature : 901F750D
AccurateRip v2 signature : FD7950EB
->Track not present in AccurateRip database.
Statistics
Read error : 0
Jitter error (maybe fixed) : 0
Retry sector count : 0
Damaged sector count : 0
Track 03
Filename : /Users/anch/Music/FLAC/2013 - Long Story Short [FLAC]/%[D]/03 - Michiyo Yagi, Okkyung Lee, Xu Fengxia.flac
/Users/anch/Music/FLAC/2013 - Long Story Short [MP3 320]/%[D]/03 - Michiyo Yagi, Okkyung Lee, Xu Fengxia.mp3
/Users/anch/Music/FLAC/2013 - Long Story Short [MP3 V0]/%[D]/03 - Michiyo Yagi, Okkyung Lee, Xu Fengxia.mp3
Pre-gap length : 00:04:16
Track gain : -3.16 dB
Peak : 0.851257
CRC32 hash (test run) : D47E670F
CRC32 hash : D47E670F
CRC32 hash (skip zero) : D13D12EE
AccurateRip v1 signature : 7FAE9BC3
AccurateRip v2 signature : F95AB37D
->Track not present in AccurateRip database.
Statistics
Read error : 0
Jitter error (maybe fixed) : 0
Retry sector count : 0
Damaged sector count : 0
Track 04
Filename : /Users/anch/Music/FLAC/2013 - Long Story Short [FLAC]/%[D]/04 - The Heavyweights.flac
/Users/anch/Music/FLAC/2013 - Long Story Short [MP3 320]/%[D]/04 - The Heavyweights.mp3
/Users/anch/Music/FLAC/2013 - Long Story Short [MP3 V0]/%[D]/04 - The Heavyweights.mp3
Pre-gap length : 00:01:73
Track gain : -5.36 dB
Peak : 0.988678
CRC32 hash (test run) : 2A2C23F6
CRC32 hash : 2A2C23F6
CRC32 hash (skip zero) : 9E1BFD03
AccurateRip v1 signature : FBE1D307
AccurateRip v2 signature : EDBF8FE3
->Track not present in AccurateRip database.
Statistics
Read error : 0
Jitter error (maybe fixed) : 0
Retry sector count : 0
Damaged sector count : 0
No errors occurred
End of status report
 
CD 2
X Lossless Decoder version 20130407 (143.0)
XLD extraction logfile from 2013-04-21 10:21:54 +0400
Various Artists / Long Story Short
Used drive : HL-DT-ST DVDRW GX30N (revision RP09)
Media type : Pressed CD
Ripper mode : XLD Secure Ripper
Disable audio cache : OK for the drive with a cache less than 1375KiB
Make use of C2 pointers : NO
Read offset correction : 6
Max retry count : 20
Gap status : Analyzed, Appended
TOC of the extracted CD
Track | Start | Length | Start sector | End sector
---------------------------------------------------------
1 | 00:00:00 | 22:36:52 | 0 | 101751
2 | 22:36:52 | 28:28:74 | 101752 | 229925
3 | 51:05:51 | 14:01:70 | 229926 | 293070
4 | 65:07:46 | 12:44:44 | 293071 | 350414
AccurateRip Summary
Disc not found in AccurateRip DB.
All Tracks
Album gain : -4.29 dB
Peak : 0.988678
Statistics
Read error : 0
Jitter error (maybe fixed) : 0
Retry sector count : 0
Damaged sector count : 0
Track 01
Filename : /Users/anch/Music/FLAC/2013 - Long Story Short [FLAC]/02/01 - Joe McPhee, Maâllem Mokhtar Gania, Fred Lonberg-Holm, Michael Zerang.flac
/Users/anch/Music/FLAC/2013 - Long Story Short [MP3 320]/02/01 - Joe McPhee, Maâllem Mokhtar Gania, Fred Lonberg-Holm, Michael Zerang.mp3
/Users/anch/Music/FLAC/2013 - Long Story Short [MP3 V0]/02/01 - Joe McPhee, Maâllem Mokhtar Gania, Fred Lonberg-Holm, Michael Zerang.mp3
Pre-gap length : 00:02:00
Track gain : -2.06 dB
Peak : 0.988647
CRC32 hash (test run) : 1F272739
CRC32 hash : 1F272739
CRC32 hash (skip zero) : 301AFA9D
AccurateRip v1 signature : B912224A
AccurateRip v2 signature : 4BC8015E
->Track not present in AccurateRip database.
Statistics
Read error : 0
Jitter error (maybe fixed) : 0
Retry sector count : 0
Damaged sector count : 0
Track 02
Filename : /Users/anch/Music/FLAC/2013 - Long Story Short [FLAC]/02/02 - Peter Brötzmann, Michiyo Yagi, Tamaya Honda.flac
/Users/anch/Music/FLAC/2013 - Long Story Short [MP3 320]/02/02 - Peter Brötzmann, Michiyo Yagi, Tamaya Honda.mp3
/Users/anch/Music/FLAC/2013 - Long Story Short [MP3 V0]/02/02 - Peter Brötzmann, Michiyo Yagi, Tamaya Honda.mp3
Pre-gap length : 00:02:40
Track gain : -3.38 dB
Peak : 0.988678
CRC32 hash (test run) : 29D8868A
CRC32 hash : 29D8868A
CRC32 hash (skip zero) : E60B32CE
AccurateRip v1 signature : C2693C85
AccurateRip v2 signature : 0F951C21
->Track not present in AccurateRip database.
Statistics
Read error : 0
Jitter error (maybe fixed) : 0
Retry sector count : 0
Damaged sector count : 0
Track 03
Filename : /Users/anch/Music/FLAC/2013 - Long Story Short [FLAC]/02/03 - Peter Brötzmann, Jason Adasiewicz, Sabu Toyozumi.flac
/Users/anch/Music/FLAC/2013 - Long Story Short [MP3 320]/02/03 - Peter Brötzmann, Jason Adasiewicz, Sabu Toyozumi.mp3
/Users/anch/Music/FLAC/2013 - Long Story Short [MP3 V0]/02/03 - Peter Brötzmann, Jason Adasiewicz, Sabu Toyozumi.mp3
Pre-gap length : 00:02:73
Track gain : -4.32 dB
Peak : 0.988647
CRC32 hash (test run) : F0816D19
CRC32 hash : F0816D19
CRC32 hash (skip zero) : DC8E0A31
AccurateRip v1 signature : A4821E52
AccurateRip v2 signature : C558D5D7
->Track not present in AccurateRip database.
Statistics
Read error : 0
Jitter error (maybe fixed) : 0
Retry sector count : 0
Damaged sector count : 0
Track 04
Filename : /Users/anch/Music/FLAC/2013 - Long Story Short [FLAC]/02/04 - Dieb 13, Mats Gustafsson, Martin Siewert.flac
/Users/anch/Music/FLAC/2013 - Long Story Short [MP3 320]/02/04 - Dieb 13, Mats Gustafsson, Martin Siewert.mp3
/Users/anch/Music/FLAC/2013 - Long Story Short [MP3 V0]/02/04 - Dieb 13, Mats Gustafsson, Martin Siewert.mp3
Pre-gap length : 00:02:03
Track gain : -6.78 dB
Peak : 0.980042
CRC32 hash (test run) : DFEB13EA
CRC32 hash : DFEB13EA
CRC32 hash (skip zero) : 47007235
AccurateRip v1 signature : 2900ADBD
AccurateRip v2 signature : 11FCBEBA
->Track not present in AccurateRip database.
Statistics
Read error : 0
Jitter error (maybe fixed) : 0
Retry sector count : 0
Damaged sector count : 0
No errors occurred
End of status report
 
CD 3
X Lossless Decoder version 20130407 (143.0)
XLD extraction logfile from 2013-04-21 10:46:38 +0400
Various Artists / Long Story Short
Used drive : HL-DT-ST DVDRW GX30N (revision RP09)
Media type : Pressed CD
Ripper mode : XLD Secure Ripper
Disable audio cache : OK for the drive with a cache less than 1375KiB
Make use of C2 pointers : NO
Read offset correction : 6
Max retry count : 20
Gap status : Analyzed, Appended
TOC of the extracted CD
Track | Start | Length | Start sector | End sector
---------------------------------------------------------
1 | 00:00:00 | 21:47:48 | 0 | 98072
2 | 21:47:48 | 51:38:38 | 98073 | 330460
AccurateRip Summary
Disc not found in AccurateRip DB.
All Tracks
Album gain : -4.40 dB
Peak : 0.988647
Statistics
Read error : 0
Jitter error (maybe fixed) : 0
Retry sector count : 0
Damaged sector count : 0
Track 01
Filename : /Users/anch/Music/FLAC/2013 - Long Story Short [FLAC]/03/01 - Keiji Haino.flac
/Users/anch/Music/FLAC/2013 - Long Story Short [MP3 320]/03/01 - Keiji Haino.mp3
/Users/anch/Music/FLAC/2013 - Long Story Short [MP3 V0]/03/01 - Keiji Haino.mp3
Pre-gap length : 00:02:00
Track gain : -6.31 dB
Peak : 0.988647
CRC32 hash (test run) : 170B2FC0
CRC32 hash : 170B2FC0
CRC32 hash (skip zero) : 81F601FB
AccurateRip v1 signature : 20B9BD53
AccurateRip v2 signature : 36F70B4C
->Track not present in AccurateRip database.
Statistics
Read error : 0
Jitter error (maybe fixed) : 0
Retry sector count : 0
Damaged sector count : 0
Track 02
Filename : /Users/anch/Music/FLAC/2013 - Long Story Short [FLAC]/03/02 - Peter Brötzmann, Bill Laswell, Maâllem Mokhtar Gania, Hamid Drake.flac
/Users/anch/Music/FLAC/2013 - Long Story Short [MP3 320]/03/02 - Peter Brötzmann, Bill Laswell, Maâllem Mokhtar Gania, Hamid Drake.mp3
/Users/anch/Music/FLAC/2013 - Long Story Short [MP3 V0]/03/02 - Peter Brötzmann, Bill Laswell, Maâllem Mokhtar Gania, Hamid Drake.mp3
Pre-gap length : 00:03:63
Track gain : -3.72 dB
Peak : 0.988647
CRC32 hash (test run) : 91709157
CRC32 hash : 91709157
CRC32 hash (skip zero) : 23370299
AccurateRip v1 signature : 663CC5AA
AccurateRip v2 signature : E6422009
->Track not present in AccurateRip database.
Statistics
Read error : 0
Jitter error (maybe fixed) : 0
Retry sector count : 0
Damaged sector count : 0
No errors occurred
End of status report
 
CD 4
X Lossless Decoder version 20130407 (143.0)
XLD extraction logfile from 2013-04-21 13:38:40 +0400
Various Artists / Long Story Short
Used drive : HL-DT-ST DVDRW GX30N (revision RP09)
Media type : Pressed CD
Ripper mode : XLD Secure Ripper
Disable audio cache : OK for the drive with a cache less than 1375KiB
Make use of C2 pointers : NO
Read offset correction : 6
Max retry count : 20
Gap status : Analyzed, Appended
TOC of the extracted CD
Track | Start | Length | Start sector | End sector
---------------------------------------------------------
1 | 00:00:00 | 19:36:10 | 0 | 88209
2 | 19:36:10 | 21:22:27 | 88210 | 184386
3 | 40:58:37 | 10:59:17 | 184387 | 233828
4 | 51:57:54 | 27:14:48 | 233829 | 356426
AccurateRip Summary
Disc not found in AccurateRip DB.
All Tracks
Album gain : -5.72 dB
Peak : 0.988678
Statistics
Read error : 0
Jitter error (maybe fixed) : 0
Retry sector count : 0
Damaged sector count : 0
Track 01
Filename : /Users/anch/Music/FLAC/2013 - Long Story Short [FLAC]/04/01 - Jeb Bishop, Joe McPhee, Mars Williams, Jason Adasiewicz, Kent Kessler, Tamaya Honda.flac
/Users/anch/Music/FLAC/2013 - Long Story Short [MP3 320]/04/01 - Jeb Bishop, Joe McPhee, Mars Williams, Jason Adasiewicz, Kent Kessler, Tamaya Honda.mp3
/Users/anch/Music/FLAC/2013 - Long Story Short [MP3 V0]/04/01 - Jeb Bishop, Joe McPhee, Mars Williams, Jason Adasiewicz, Kent Kessler, Tamaya Honda.mp3
Pre-gap length : 00:02:00
Track gain : -3.38 dB
Peak : 0.986237
CRC32 hash (test run) : 04E95DE2
CRC32 hash : 04E95DE2
CRC32 hash (skip zero) : 5B945AEF
AccurateRip v1 signature : B62378AE
AccurateRip v2 signature : 74E55B1B
->Track not present in AccurateRip database.
Statistics
Read error : 0
Jitter error (maybe fixed) : 0
Retry sector count : 0
Damaged sector count : 0
Track 02
Filename : /Users/anch/Music/FLAC/2013 - Long Story Short [FLAC]/04/02 - Hairy Bones.flac
/Users/anch/Music/FLAC/2013 - Long Story Short [MP3 320]/04/02 - Hairy Bones.mp3
/Users/anch/Music/FLAC/2013 - Long Story Short [MP3 V0]/04/02 - Hairy Bones.mp3
Pre-gap length : 00:03:27
Track gain : -6.21 dB
Peak : 0.988678
CRC32 hash (test run) : 51DD3F67
CRC32 hash : 51DD3F67
CRC32 hash (skip zero) : 530E1829
AccurateRip v1 signature : 986BE089
AccurateRip v2 signature : 64C4147B
->Track not present in AccurateRip database.
Statistics
Read error : 0
Jitter error (maybe fixed) : 0
Retry sector count : 0
Damaged sector count : 0
Track 03
Filename : /Users/anch/Music/FLAC/2013 - Long Story Short [FLAC]/04/03 - Masahiko Satoh.flac
/Users/anch/Music/FLAC/2013 - Long Story Short [MP3 320]/04/03 - Masahiko Satoh.mp3
/Users/anch/Music/FLAC/2013 - Long Story Short [MP3 V0]/04/03 - Masahiko Satoh.mp3
Pre-gap length : 00:03:25
Track gain : -1.09 dB
Peak : 0.881104
CRC32 hash (test run) : A346125E
CRC32 hash : A346125E
CRC32 hash (skip zero) : 0FA4CDF5
AccurateRip v1 signature : 9DD2D2D9
AccurateRip v2 signature : C27AF98E
->Track not present in AccurateRip database.
Statistics
Read error : 0
Jitter error (maybe fixed) : 0
Retry sector count : 0
Damaged sector count : 0
Track 04
Filename : /Users/anch/Music/FLAC/2013 - Long Story Short [FLAC]/04/04 - Chicago Tentet, Michiyo Yagi.flac
/Users/anch/Music/FLAC/2013 - Long Story Short [MP3 320]/04/04 - Chicago Tentet, Michiyo Yagi.mp3
/Users/anch/Music/FLAC/2013 - Long Story Short [MP3 V0]/04/04 - Chicago Tentet, Michiyo Yagi.mp3
Pre-gap length : 00:02:74
Track gain : -5.63 dB
Peak : 0.988647
CRC32 hash (test run) : 589D7193
CRC32 hash : 589D7193
CRC32 hash (skip zero) : DD874782
AccurateRip v1 signature : E4009240
AccurateRip v2 signature : 9DCB8FFE
->Track not present in AccurateRip database.
Statistics
Read error : 0
Jitter error (maybe fixed) : 0
Retry sector count : 0
Damaged sector count : 0
No errors occurred
End of status report
 
CD 5
X Lossless Decoder version 20130407 (143.0)
XLD extraction logfile from 2013-04-21 12:59:05 +0400
Various Artists / Long Story Short
Used drive : (null) (null) (revision (null))
Media type :
Ripper mode : XLD Secure Ripper
Disable audio cache : OK for the drive with a cache less than 1375KiB
Make use of C2 pointers : NO
Read offset correction : 6
Max retry count : 20
Gap status : Analyzed, Appended
TOC of the extracted CD
Track | Start | Length | Start sector | End sector
---------------------------------------------------------
1 | 00:00:00 | 36:59:62 | 0 | 166486
2 | 36:59:62 | 11:10:70 | 166487 | 216806
3 | 48:10:57 | 07:41:74 | 216807 | 251455
4 | 55:52:56 | 15:20:11 | 251456 | 320466
AccurateRip Summary
Disc not found in AccurateRip DB.
All Tracks
Album gain : -3.10 dB
Peak : 0.992188
Statistics
Read error : 0
Jitter error (maybe fixed) : 0
Retry sector count : 0
Damaged sector count : 0
Track 01
Filename : /Users/anch/Music/FLAC/2013 - Long Story Short [FLAC]/05/01 - Peter Brötzmann, Eric Revis, Nasheet Waits.flac
/Users/anch/Music/FLAC/2013 - Long Story Short [MP3 320]/05/01 - Peter Brötzmann, Eric Revis, Nasheet Waits.mp3
/Users/anch/Music/FLAC/2013 - Long Story Short [MP3 V0]/05/01 - Peter Brötzmann, Eric Revis, Nasheet Waits.mp3
Pre-gap length : 00:02:00
Track gain : -2.04 dB
Peak : 0.989868
CRC32 hash (test run) : 5A3C7057
CRC32 hash : 5A3C7057
CRC32 hash (skip zero) : 3276BA74
AccurateRip v1 signature : 065D7665
AccurateRip v2 signature : 36CF70BD
->Track not present in AccurateRip database.
Statistics
Read error : 0
Jitter error (maybe fixed) : 0
Retry sector count : 0
Damaged sector count : 0
Track 02
Filename : /Users/anch/Music/FLAC/2013 - Long Story Short [FLAC]/05/02 - DKV Trio, Mats Gustafsson, Massimo Pupillo, Paal Nilssen-Love.flac
/Users/anch/Music/FLAC/2013 - Long Story Short [MP3 320]/05/02 - DKV Trio, Mats Gustafsson, Massimo Pupillo, Paal Nilssen-Love.mp3
/Users/anch/Music/FLAC/2013 - Long Story Short [MP3 V0]/05/02 - DKV Trio, Mats Gustafsson, Massimo Pupillo, Paal Nilssen-Love.mp3
Pre-gap length : 00:02:69
Track gain : -3.31 dB
Peak : 0.988647
CRC32 hash (test run) : 5FC787D5
CRC32 hash : 5FC787D5
CRC32 hash (skip zero) : 0DDF8681
AccurateRip v1 signature : 26C49568
AccurateRip v2 signature : AE6DC170
->Track not present in AccurateRip database.
Statistics
Read error : 0
Jitter error (maybe fixed) : 0
Retry sector count : 0
Damaged sector count : 0
Track 03
Filename : /Users/anch/Music/FLAC/2013 - Long Story Short [FLAC]/05/03 - Full Blast.flac
/Users/anch/Music/FLAC/2013 - Long Story Short [MP3 320]/05/03 - Full Blast.mp3
/Users/anch/Music/FLAC/2013 - Long Story Short [MP3 V0]/05/03 - Full Blast.mp3
Pre-gap length : 00:03:20
Track gain : -5.07 dB
Peak : 0.992188
CRC32 hash (test run) : E4D6223B
CRC32 hash : E4D6223B
CRC32 hash (skip zero) : 5307F19A
AccurateRip v1 signature : 8120396D
AccurateRip v2 signature : 91B870C3
->Track not present in AccurateRip database.
Statistics
Read error : 0
Jitter error (maybe fixed) : 0
Retry sector count : 0
Damaged sector count : 0
Track 04
Filename : /Users/anch/Music/FLAC/2013 - Long Story Short [FLAC]/05/04 - Caspar Brötzmann Massaker.flac
/Users/anch/Music/FLAC/2013 - Long Story Short [MP3 320]/05/04 - Caspar Brötzmann Massaker.mp3
/Users/anch/Music/FLAC/2013 - Long Story Short [MP3 V0]/05/04 - Caspar Brötzmann Massaker.mp3
Pre-gap length : 00:02:18
Track gain : -3.16 dB
Peak : 0.988647
CRC32 hash (test run) : 123500C4
CRC32 hash : 123500C4
CRC32 hash (skip zero) : A7C8E094
AccurateRip v1 signature : 8E736AD6
AccurateRip v2 signature : 5CF7C19C
->Track not present in AccurateRip database.
Statistics
Read error : 0
Jitter error (maybe fixed) : 0
Retry sector count : 0
Damaged sector count : 0
No errors occurred
End of status report
 
Содержание индексных карт (.CUE)
 
CD 1
TITLE "Long Story Short"
REM GENRE "Free Jazz"
REM DATE "2013"
REM DISCNUMBER 1
REM TOTALDISCS 5
REM DISCID 38107804
REM REPLAYGAIN_ALBUM_GAIN -5.04 dB
REM REPLAYGAIN_ALBUM_PEAK 0.988678
REM COMPILATION TRUE
FILE "01 - Sonore - Untitled.flac" WAVE
TRACK 01 AUDIO
TITLE "Untitled"
PERFORMER "Sonore"
ISRC ATD411212001
REM REPLAYGAIN_TRACK_GAIN -5.11 dB
REM REPLAYGAIN_TRACK_PEAK 0.986511
INDEX 01 00:00:00
TRACK 02 AUDIO
TITLE "Untitled"
PERFORMER "Chicago Tentet, John Tchicai"
ISRC ATD411212002
REM REPLAYGAIN_TRACK_GAIN -5.22 dB
REM REPLAYGAIN_TRACK_PEAK 0.988647
INDEX 00 06:47:15
FILE "02 - Chicago Tentet, John Tchicai - Untitled.flac" WAVE
INDEX 01 00:00:00
TRACK 03 AUDIO
TITLE "Untitled"
PERFORMER "Michiyo Yagi, Okkyung Lee, Xu Fengxia"
ISRC ATD411212003
REM REPLAYGAIN_TRACK_GAIN -3.16 dB
REM REPLAYGAIN_TRACK_PEAK 0.851257
INDEX 00 25:51:51
FILE "03 - Michiyo Yagi, Okkyung Lee, Xu Fengxia - Untitled.flac" WAVE
INDEX 01 00:00:00
TRACK 04 AUDIO
TITLE "Untitled"
PERFORMER "The Heavyweights"
ISRC ATD411212004
REM REPLAYGAIN_TRACK_GAIN -5.36 dB
REM REPLAYGAIN_TRACK_PEAK 0.988678
INDEX 00 16:35:62
FILE "04 - The Heavyweights - Untitled.flac" WAVE
INDEX 01 00:00:00
 
CD 2
TITLE "Long Story Short"
REM GENRE "Free Jazz"
REM DATE "2013"
REM DISCNUMBER 2
REM TOTALDISCS 5
REM DISCID 38124004
REM REPLAYGAIN_ALBUM_GAIN -4.29 dB
REM REPLAYGAIN_ALBUM_PEAK 0.988678
REM COMPILATION TRUE
FILE "01 - Joe McPhee, Maallem Mokhtar Gania, Fred Lonberg-Holm, Michael Zerang - Untitled.flac" WAVE
TRACK 01 AUDIO
TITLE "Untitled"
PERFORMER "Joe McPhee, Maallem Mokhtar Gania, Fred Lonberg-Holm, Michael Zerang"
ISRC ATD411212005
REM REPLAYGAIN_TRACK_GAIN -2.06 dB
REM REPLAYGAIN_TRACK_PEAK 0.988647
INDEX 01 00:00:00
TRACK 02 AUDIO
TITLE "Untitled"
PERFORMER "Peter Brotzmann, Michiyo Yagi, Tamaya Honda"
ISRC ATD411212006
REM REPLAYGAIN_TRACK_GAIN -3.38 dB
REM REPLAYGAIN_TRACK_PEAK 0.988678
INDEX 00 22:34:12
FILE "02 - Peter Brotzmann, Michiyo Yagi, Tamaya Honda - Untitled.flac" WAVE
INDEX 01 00:00:00
TRACK 03 AUDIO
TITLE "Untitled"
PERFORMER "Peter Brotzmann, Jason Adasiewicz, Sabu Toyozumi"
ISRC ATD411212007
REM REPLAYGAIN_TRACK_GAIN -4.32 dB
REM REPLAYGAIN_TRACK_PEAK 0.988647
INDEX 00 28:26:01
FILE "03 - Peter Brotzmann, Jason Adasiewicz, Sabu Toyozumi - Untitled.flac" WAVE
INDEX 01 00:00:00
TRACK 04 AUDIO
TITLE "Untitled"
PERFORMER "Dieb 13, Mats Gustafsson, Martin Siewert"
ISRC ATD411212008
REM REPLAYGAIN_TRACK_GAIN -6.78 dB
REM REPLAYGAIN_TRACK_PEAK 0.980042
INDEX 00 13:59:67
FILE "04 - Dieb 13, Mats Gustafsson, Martin Siewert - Untitled.flac" WAVE
INDEX 01 00:00:00
 
CD 3
TITLE "Long Story Short"
REM GENRE "Free Jazz"
REM DATE "2013"
REM DISCNUMBER 3
REM TOTALDISCS 5
REM DISCID 0F113602
REM REPLAYGAIN_ALBUM_GAIN -4.40 dB
REM REPLAYGAIN_ALBUM_PEAK 0.988647
REM COMPILATION TRUE
FILE "01 - Keiji Haino - Untitled.flac" WAVE
TRACK 01 AUDIO
TITLE "Untitled"
PERFORMER "Keiji Haino"
ISRC ATD411212009
REM REPLAYGAIN_TRACK_GAIN -6.31 dB
REM REPLAYGAIN_TRACK_PEAK 0.988647
INDEX 01 00:00:00
TRACK 02 AUDIO
TITLE "Untitled"
PERFORMER "Peter Brotzmann, Bill Laswell, Maallem Mokhtar Gania, Hamid Drake"
ISRC ATD411212010
REM REPLAYGAIN_TRACK_GAIN -3.72 dB
REM REPLAYGAIN_TRACK_PEAK 0.988647
INDEX 00 21:43:60
FILE "02 - Peter Brotzmann, Bill Laswell, Maallem Mokhtar Gania, Hamid Drake - Untitled.flac" WAVE
INDEX 01 00:00:00
 
CD 4
TITLE "Long Story Short"
REM GENRE "Free Jazz"
REM DATE "2013"
REM DISCNUMBER 4
REM TOTALDISCS 5
REM DISCID 2D129004
REM REPLAYGAIN_ALBUM_GAIN -5.72 dB
REM REPLAYGAIN_ALBUM_PEAK 0.988678
REM COMPILATION TRUE
FILE "01 - Jeb Bishop, Joe McPhee, Mars Williams, Jason Adasiewicz, Kent Kessler, Tamaya Honda - Untitled.flac" WAVE
TRACK 01 AUDIO
TITLE "Untitled"
PERFORMER "Jeb Bishop, Joe McPhee, Mars Williams, Jason Adasiewicz, Kent Kessler, Tamaya Honda"
ISRC ATD411212011
REM REPLAYGAIN_TRACK_GAIN -3.38 dB
REM REPLAYGAIN_TRACK_PEAK 0.986237
INDEX 01 00:00:00
TRACK 02 AUDIO
TITLE "Untitled"
PERFORMER "Hairy Bones"
ISRC ATD411212012
REM REPLAYGAIN_TRACK_GAIN -6.21 dB
REM REPLAYGAIN_TRACK_PEAK 0.988678
INDEX 00 19:32:58
FILE "02 - Hairy Bones - Untitled.flac" WAVE
INDEX 01 00:00:00
TRACK 03 AUDIO
TITLE "Untitled"
PERFORMER "Masahiko Satoh"
ISRC ATD411212013
REM REPLAYGAIN_TRACK_GAIN -1.09 dB
REM REPLAYGAIN_TRACK_PEAK 0.881104
INDEX 00 21:19:02
FILE "03 - Masahiko Satoh - Untitled.flac" WAVE
INDEX 01 00:00:00
TRACK 04 AUDIO
TITLE "Concert for Fukushima"
PERFORMER "Chicago Tentet, Michiyo Yagi"
ISRC ATD411212014
REM REPLAYGAIN_TRACK_GAIN -5.63 dB
REM REPLAYGAIN_TRACK_PEAK 0.988647
INDEX 00 10:56:18
FILE "04 - Chicago Tentet, Michiyo Yagi - Concert for Fukushima.flac" WAVE
INDEX 01 00:00:00
 
CD 5
TITLE "Long Story Short"
REM GENRE "Free Jazz"
REM DATE "2013"
REM DISCNUMBER 5
REM TOTALDISCS 5
REM DISCID 2D000004
REM REPLAYGAIN_ALBUM_GAIN -3.10 dB
REM REPLAYGAIN_ALBUM_PEAK 0.992188
REM COMPILATION TRUE
FILE "01 - Peter Brotzmann, Eric Revis, Nasheet Waits - Untitled.flac" WAVE
TRACK 01 AUDIO
TITLE "Untitled"
PERFORMER "Peter Brщtzmann, Eric Revis, Nasheet Waits"
ISRC ATD411212015
REM REPLAYGAIN_TRACK_GAIN -2.04 dB
REM REPLAYGAIN_TRACK_PEAK 0.989868
INDEX 01 00:00:00
TRACK 02 AUDIO
TITLE "Untitled"
PERFORMER "DKV Trio, Mats Gustafsson, Massimo Pupillo, Paal Nilssen-Love"
ISRC ATD411212016
REM REPLAYGAIN_TRACK_GAIN -3.31 dB
REM REPLAYGAIN_TRACK_PEAK 0.988647
INDEX 00 36:56:68
FILE "02 - DKV Trio, Mats Gustafsson, Massimo Pupillo, Paal Nilssen-Love - Untitled.flac" WAVE
INDEX 01 00:00:00
TRACK 03 AUDIO
TITLE "Untitled"
PERFORMER "Full Blast"
ISRC ATD411212017
REM REPLAYGAIN_TRACK_GAIN -5.07 dB
REM REPLAYGAIN_TRACK_PEAK 0.992188
INDEX 00 11:07:50
FILE "03 - Full Blast - Untitled.flac" WAVE
INDEX 01 00:00:00
TRACK 04 AUDIO
TITLE "Untitled"
PERFORMER "Caspar Brotzmann Massaker"
ISRC ATD411212018
REM REPLAYGAIN_TRACK_GAIN -3.16 dB
REM REPLAYGAIN_TRACK_PEAK 0.988647
INDEX 00 07:39:56
FILE "04 - Caspar Brotzmann Massaker - Untitled.flac" WAVE
INDEX 01 00:00:00
 
Об альбоме / сборнике
Whether you have no experience with the Godfather of free jazz or you measure your Peter Brötzmann CD and LP collection in linear feet, this 5CD box curated by the German saxophonist is either a great introduction to or an affirmation of his music and influence.
Organized on the occasion of his 70th birthday, these four days of performances in November 2011, also marked the 25th anniversary of the Unlimited Festival in Wels, Austria. Brötzmann did not assemble a retrospective of his ouevre, as there were no recreations of the fabled Machine Gun (FMP, 1968) sessions, Globe Unity Orchestra, or Last Exit band (having said farewell to Sonny Sharrock in 1994), nor did he play duos with Han Bennink. He did, however, display his current tastes in music which over the last twenty years have embraced musicians not only from Europe but also from Chicago and Japan.
Brötzmann's Chicago Tentet performed twice at the festival and two lengthy pieces are presented here. The first is an eerie 26-minute performance with Danish saxophonist John Tchicai, who passed away within a year of this recording. He can be heard chanting "Everything can happen from one second to the next." The second was the Tentet's "Concert For Fukushima" performance with guests Otomo Yoshihide, Akira Sakata, Michiyo Yagi and Toshinori Konda. This release only captures Yagi's koto performance, about a quarter of the two hour performance. Will there be more of this music to follow?
While Brötzmann is featured prominently here, he leads only ten out of the eighteen groups. He also choses to present his current listening pleasures. The highlights of the non-Brötzmann groups heard are several. Joe McPhee's saxophone and trumpet accompanies Morroccian Gnawa musican Maâllem Mokhtar Gania, Fred Lonberg-Holm and Michael Zerang for some African trance music. Saxophonist Mats Gustafsson, perhaps the heir to Brötzmann's sound, dabbles in bits and bites of improvisation and electronics with Dieb13 and Martin Siewert. Masahiko Satoh delivers a rollicking and cogent solo piano piece that swaps Cecil Taylor runs with stride tones and fragments of classical delivery. Brötzmann's influence can also be heard in the koto, cello and guzheng (a Chinese plucked zither) trio of Michiyo Yagi, Okkyung Lee and Xu Fengxia, as the three blast off into a freeform ethereal sound. The highlight of the non-Brötzmann ensembles might be the DKV Trio of Hamid Drake, Kent Kessler and Ken Vandermark augmented by Mats Gustafsson, Massimo Pupillo and Paal Nilssen-Love. The trio-cum-sextet sketch a restrained improvisation that is more listening than playing, before their rocked-out climax of sound.
The festival goers and connoisseurs of the great man's work are treated to various permutations and combinations of his music. His three-saxophone improvising band, Sonore, with Ken Vandermark and Mats Gustafson, marks its tenth anniversary working together here, as does the relatively new saxophone/piano/drums trio of Brotzmann, Masahiko Satoh and Takeo Moriyama. His acclaimed duo with Chicago vibraphonist Jason Adasiewicz is augmented here by drummer Sabu Toyozumi. The percussionist adds locomotion to the duo, plus he spikes the intensity.
Another new-ish Brötzmann saxophone trio, with bassist Eric Revis and drummer Nasheet Waits, is the most conventional approach heard here. Although it is far from conservative, the thirty-seven minute piece might be a nod to American free jazz as opposed to the European approach Brötzmann has championed most of his career.
The emotional and aural high points of this box set are the two pieces, one by Brotzmann's electric band Hairy Bones and the other by the African influenced ensemble that reunites him with bassist Bill Laswell. The latter piece includes Hamid Drake and guembri musican Maâllem Mokhtar Gania. While this piece hypnotizes the ear for nearly fifty-two minutes, the Hairy Bones improvisation clocking in at twenty-one minutes is an exhausting barrage of sound and energy. Toshinori Kondo's electrified trumpet and Masimo Pupillo's electric bass battle Brötzmann and drummer Paal Nilssen-Love for stage preeminence. The music is both exhilarating and exhausting.
If six hours of music could possibly leave you wanting, this collection does.
Записано в ходе четырехдневного Unlimited Festival в австрийском городе Вельс в ноябре 2011 года. Вдвойне примечательно тем, что это был юбилейный 25-й и последний фестиваль, т.к. его куратор Петер Бротцманн принял решение более этот форум не проводить (одной из причин чего стала смерть Джона Чикаи).
Выкладываю по просьбам трудящихся (у которых завтра праздник), а также в честь сегодняшнего Международного дня джаза!
Any questions -> support@pro-jazz.com. По всем вопросам пишите -> support@pro-jazz.com
11:41
246
Нет комментариев. Ваш будет первым!