Вы используете незарегистрированную версию компонента "Вкладки"!

Поиск

(Avant-Garde, Contemporary Jazz, Songlines) James Carney Group (Peter Epstein, Ralph Alessi, Tony Malaby, Josh Roseman, Chris Lightcap, Mark Ferber) - Green-Wood - 2007, FLAC (tracks+.cue), lossless

(Avant-Garde, Contemporary Jazz, Songlines) James Carney Group (Peter Epstein, Ralph Alessi, Tony Malaby, Josh Roseman, Chris Lightcap, Mark Ferber) - Green-Wood - 2007, FLAC (tracks+.cue), lossless
Треклист:
James Carney Group / Green-Wood
Жанр: Avant-Garde, Contemporary Jazz, Songlines
Страна-производитель диска: Canada
Год издания: 2007
Издатель (лейбл): Songlines
Номер по каталогу: SGL SA1566-2
Аудиокодек: FLAC (*.flac)
Тип рипа: tracks+.cue
Битрейт аудио: lossless
Продолжительность: 1:06:50
Источник (релизер): Max Monteiro
Наличие сканов в содержимом раздачи: нет
Треклист:
1. Power 7:38
2. Smog Cutter 8:23
3. It’s Always Cold When You’re Leaving 12:46
4. Shame 5:43
5. Williwaw 8:34
6. In Lieu of Crossroads 7:03
7. The Poetry Wall 8:57
8. Half the Battle (bonus track) 7:46
All music written and orchestrated by James Carney, except « Smog Cutter » which was written by Deron Johnson & James Carney.
 
Лог создания рипа
Exact Audio Copy V1.0 beta 3 from 29. August 2011
EAC extraction logfile from 30. April 2013, 21:39
James Carney Group / Green-Wood
Used drive : SlimtypeeNAU508 5 Adapter: 1 ID: 0
Read mode : Secure
Utilize accurate stream : Yes
Defeat audio cache : Yes
Make use of C2 pointers : No
Read offset correction : 6
Overread into Lead-In and Lead-Out : No
Fill up missing offset samples with silence : Yes
Delete leading and trailing silent blocks : No
Null samples used in CRC calculations : Yes
Used interface : Native Win32 interface for Win NT & 2000
Gap handling : Appended to previous track
Used output format : User Defined Encoder
Selected bitrate : 768 kBit/s
Quality : High
Add ID3 tag : No
Command line compressor : C:\Program Files (x86)\Exact Audio Copy\Flac\flac.exe
Additional command line options : -8 -V -T "ARTIST=%artist%" -T "TITLE=%title%" -T "ALBUM=%albumtitle%" -T "DATE=%year%" -T "TRACKNUMBER=%tracknr%" -T "GENRE=%genre%" -T "PERFORMER=%albuminterpret%" -T "COMPOSER=%composer%" %haslyrics%--tag-from-file=LYRICS="%lyricsfile%"%haslyrics% -T "ALBUMARTIST=%albumartist%" -T "DISCNUMBER=%cdnumber%" -T "TOTALDISCS=%totalcds%" -T "TOTALTRACKS=%numtracks%" -T "COMMENT=%comment%" %source% -o %dest%
TOC of the extracted CD
Track | Start | Length | Start sector | End sector
---------------------------------------------------------
1 | 0:00.00 | 7:37.71 | 0 | 34345
2 | 7:37.71 | 8:23.37 | 34346 | 72107
3 | 16:01.33 | 12:45.60 | 72108 | 129542
4 | 28:47.18 | 5:42.71 | 129543 | 155263
5 | 34:30.14 | 8:34.16 | 155264 | 193829
6 | 43:04.30 | 7:02.62 | 193830 | 225541
7 | 50:07.17 | 8:56.72 | 225542 | 265813
8 | 59:04.14 | 7:45.42 | 265814 | 300730
Track 1
Filename C:\EAC rips\01 - Power.wav
Pre-gap length 0:00:02.00
Peak level 96.7 %
Extraction speed 2.7 X
Track quality 100.0 %
Test CRC 54A85425
Copy CRC 54A85425
Accurately ripped (confidence 3) [945831CB] (AR v2)
Copy OK
Track 2
Filename C:\EAC rips\02 - Smog Cutter.wav
Pre-gap length 0:00:03.01
Peak level 99.2 %
Extraction speed 3.2 X
Track quality 100.0 %
Test CRC 35760A3E
Copy CRC 35760A3E
Accurately ripped (confidence 3) [A69A1FBC] (AR v2)
Copy OK
Track 3
Filename C:\EAC rips\03 - It's Always Cold When You're Leaving.wav
Pre-gap length 0:00:04.67
Peak level 96.7 %
Extraction speed 3.8 X
Track quality 100.0 %
Test CRC FE7C4E07
Copy CRC FE7C4E07
Accurately ripped (confidence 3) [E2C17ABF] (AR v2)
Copy OK
Track 4
Filename C:\EAC rips\04 - Shame.wav
Pre-gap length 0:00:02.74
Peak level 100.0 %
Extraction speed 3.4 X
Track quality 99.9 %
Test CRC 6C266A75
Copy CRC 6C266A75
Accurately ripped (confidence 3) [2F8E8370] (AR v2)
Copy OK
Track 5
Filename C:\EAC rips\05 - Williwaw.wav
Pre-gap length 0:00:11.20
Peak level 98.7 %
Extraction speed 4.4 X
Track quality 100.0 %
Test CRC 0AB3D61B
Copy CRC 0AB3D61B
Accurately ripped (confidence 3) [2180F214] (AR v2)
Copy OK
Track 6
Filename C:\EAC rips\06 - In Lieu of Crossroads.wav
Pre-gap length 0:00:03.72
Peak level 94.7 %
Extraction speed 4.5 X
Track quality 100.0 %
Test CRC 110F7A65
Copy CRC 110F7A65
Accurately ripped (confidence 3) [8C91BC29] (AR v2)
Copy OK
Track 7
Filename C:\EAC rips\07 - The Poetry Wall.wav
Pre-gap length 0:00:05.52
Peak level 95.9 %
Extraction speed 4.9 X
Track quality 100.0 %
Test CRC 551AD42A
Copy CRC 551AD42A
Accurately ripped (confidence 3) [81DA45FD] (AR v2)
Copy OK
Track 8
Filename C:\EAC rips\08 - Half the Battle (bonus track).wav
Pre-gap length 0:00:43.69
Peak level 96.7 %
Extraction speed 5.0 X
Track quality 100.0 %
Test CRC 91F68046
Copy CRC 91F68046
Accurately ripped (confidence 3) [9514A18C] (AR v2)
Copy OK
All tracks accurately ripped
No errors occurred
End of status report
---- CUETools DB Plugin V2.1.4
[CTDB TOCID: B1Qgpf95.HxBj9Zsj.HaQzULZOQ-] found
Submit result: B1Qgpf95.HxBj9Zsj.HaQzULZOQ- has been confirmed
Track | CTDB Status
1 | (1/1) Accurately ripped
2 | (1/1) Accurately ripped
3 | (1/1) Accurately ripped
4 | (1/1) Accurately ripped
5 | (1/1) Accurately ripped
6 | (1/1) Accurately ripped
7 | (1/1) Accurately ripped
8 | (1/1) Accurately ripped
==== Log checksum 214663ADCE7CB32EE02851ED1E14029F1BB3398DCBEED2ED91B945DD890491E1 ====
 
Содержание индексной карты (.CUE)
REM GENRE Jazz
REM DATE 2007
REM DISCID 770FA908
REM COMMENT "ExactAudioCopy v1.0b3"
CATALOG 0774355156629
PERFORMER "James Carney Group"
TITLE "Green-Wood"
FILE "01 - Power.wav" WAVE
TRACK 01 AUDIO
TITLE "Power"
PERFORMER "James Carney Group"
ISRC CAS230700098
INDEX 01 00:00:00
TRACK 02 AUDIO
TITLE "Smog Cutter"
PERFORMER "James Carney Group"
ISRC CAS230700099
INDEX 00 07:34:70
FILE "02 - Smog Cutter.wav" WAVE
INDEX 01 00:00:00
TRACK 03 AUDIO
TITLE "It's Always Cold When You're Leaving"
PERFORMER "James Carney Group"
ISRC CAS230700100
INDEX 00 08:18:45
FILE "03 - It's Always Cold When You're Leaving.wav" WAVE
INDEX 01 00:00:00
TRACK 04 AUDIO
TITLE "Shame"
PERFORMER "James Carney Group"
ISRC CAS230700101
INDEX 00 12:42:61
FILE "04 - Shame.wav" WAVE
INDEX 01 00:00:00
TRACK 05 AUDIO
TITLE "Williwaw"
PERFORMER "James Carney Group"
ISRC CAS230700102
INDEX 00 05:31:51
FILE "05 - Williwaw.wav" WAVE
INDEX 01 00:00:00
TRACK 06 AUDIO
TITLE "In Lieu of Crossroads"
PERFORMER "James Carney Group"
ISRC CAS230700103
INDEX 00 08:30:19
FILE "06 - In Lieu of Crossroads.wav" WAVE
INDEX 01 00:00:00
TRACK 07 AUDIO
TITLE "The Poetry Wall"
PERFORMER "James Carney Group"
ISRC CAS230700104
INDEX 00 06:57:10
FILE "07 - The Poetry Wall.wav" WAVE
INDEX 01 00:00:00
TRACK 08 AUDIO
TITLE "Half the Battle (bonus track)"
PERFORMER "James Carney Group"
ISRC CAS230700105
INDEX 00 08:13:03
FILE "08 - Half the Battle (bonus track).wav" WAVE
INDEX 01 00:00:00
 
Состав
Peter Epstein – Soprano Saxophone
Ralph Alessi – Trumpet
Tony Malaby – Tenor Saxophone
Josh Roseman – Trombone
James Carney – Acoustic and Electric Pianos, Analog Synthesizer and Orchestra Bells
Chris Lightcap – Bass
Mark Ferber – Drums
По всем вопросам пишите личное сообщение пользователю M0p94ok.
11:42
153
Нет комментариев. Ваш будет первым!