Вы используете незарегистрированную версию компонента "Вкладки"!

Поиск

(Free Jazz) Hal Russell - NRG Ensemble - 2012, FLAC (image+.cue), lossless

(Free Jazz) Hal Russell - NRG Ensemble - 2012, FLAC (image+.cue), lossless
Треклист:
Hal Russell / NRG Ensemble
Жанр: Free Jazz
Страна-производитель диска: US
Год издания: 2012
Издатель (лейбл): NESSA
Номер по каталогу: NES 21
Аудиокодек: FLAC (*.flac)
Тип рипа: image+.cue
Битрейт аудио: lossless
Продолжительность: 72:22
Источник (релизер): cd
Наличие сканов в содержимом раздачи: нет
Треклист:
1. Uncontrollable Rages 18:26
2. Kit Kat 5:42
3. Linda Jazz Princess 18:12
4. Seven Spheres 5:12
5. Lost Or? 11:49
6. C Melody Mania 13:02
 
Лог создания рипа
Exact Audio Copy V1.0 beta 2 from 29. April 2011
EAC extraction logfile from 30. April 2013, 18:02
Hal Russell / NRG Ensemble
Used drive : Optiarc DVD RW AD-7170A Adapter: 0 ID: 0
Read mode : Secure
Utilize accurate stream : Yes
Defeat audio cache : Yes
Make use of C2 pointers : No
Read offset correction : 48
Overread into Lead-In and Lead-Out : No
Fill up missing offset samples with silence : Yes
Delete leading and trailing silent blocks : No
Null samples used in CRC calculations : Yes
Used interface : Native Win32 interface for Win NT & 2000
Used output format : User Defined Encoder
Selected bitrate : 320 kBit/s
Quality : High
Add ID3 tag : No
Command line compressor : C:\Program Files\Exact Audio Copy\Flac\flac.exe
Additional command line options : -V -8 -T "Date=%year%" -T "Genre=%genre%" %source%
TOC of the extracted CD
Track | Start | Length | Start sector | End sector
---------------------------------------------------------
1 | 0:00.00 | 18:26.08 | 0 | 82957
2 | 18:26.08 | 5:41.58 | 82958 | 108590
3 | 24:07.66 | 18:12.35 | 108591 | 190525
4 | 42:20.26 | 5:11.67 | 190526 | 213917
5 | 47:32.18 | 11:49.07 | 213918 | 267099
6 | 59:21.25 | 13:01.46 | 267100 | 325720
Range status and errors
Selected range
Filename K:\ЕАС\Hal Russell - NRG Ensemble.wav
Peak level 100.0 %
Extraction speed 2.0 X
Range quality 99.9 %
Test CRC AC4691E9
Copy CRC AC4691E9
Copy OK
No errors occurred
AccurateRip summary
Track 1 not present in database
Track 2 not present in database
Track 3 not present in database
Track 4 not present in database
Track 5 not present in database
Track 6 not present in database
None of the tracks are present in the AccurateRip database
End of status report
==== Log checksum 4A4652286CF481F55466AAA7205F3BF33B612FFB49A17E97F86C302D0CFC68B6 ====
 
Содержание индексной карты (.CUE)
REM GENRE Jazz
REM DATE 2012
REM DISCID 4F10F606
REM COMMENT "ExactAudioCopy v1.0b2"
PERFORMER "Hal Russell"
TITLE "NRG Ensemble"
FILE "Hal Russell - NRG Ensemble.flac" WAVE
TRACK 01 AUDIO
TITLE "Uncontrollable Rages"
PERFORMER "Hal Russell"
ISRC US6KR1221001
FLAGS DCP
INDEX 01 00:00:00
TRACK 02 AUDIO
TITLE "Kit Kat"
PERFORMER "Hal Russell"
ISRC US6KR1221002
FLAGS DCP
INDEX 00 18:23:08
INDEX 01 18:26:08
TRACK 03 AUDIO
TITLE "Linda Jazz Princess"
PERFORMER "Hal Russell"
ISRC US6KR1221003
FLAGS DCP
INDEX 00 24:04:66
INDEX 01 24:07:66
TRACK 04 AUDIO
TITLE "Seven Spheres"
PERFORMER "Hal Russell"
ISRC US6KR1221004
FLAGS DCP
INDEX 00 42:17:26
INDEX 01 42:20:26
TRACK 05 AUDIO
TITLE "Lost Or?"
PERFORMER "Hal Russell"
ISRC US6KR1221005
FLAGS DCP
INDEX 00 47:26:18
INDEX 01 47:32:18
TRACK 06 AUDIO
TITLE "C Melody Mania"
PERFORMER "Hal Russell"
ISRC US6KR1221006
FLAGS DCP
INDEX 00 59:18:25
INDEX 01 59:21:25
Доп. информация: Recorded on May 11th, 1981 and January 10th, 1981 at Solid Sound
 
Состав
Hal Russell-drums, vibes, C-melody saxophone, shenai, cornet, zither
Chuck Burdelik-tenor saxophone, alto saxophone, clarinet, flute
Brian Sandstrom-bass, trumpet, gong
Curt Bley-bass
Steve Hunt-vibes, drums
Any questions -> support@pro-jazz.com. По всем вопросам пишите -> support@pro-jazz.com
11:42
154
Нет комментариев. Ваш будет первым!