Вы используете незарегистрированную версию компонента "Вкладки"!

Поиск

(Free Improvisation, Between the Lines) Samuel Blaser Quartet (Scott Dubois, Thomas Morgan, Gerald Cleaver) - 7th Heaven - 2008, FLAC (tracks+.cue), lossless

(Free Improvisation, Between the Lines) Samuel Blaser Quartet (Scott Dubois, Thomas Morgan, Gerald Cleaver) - 7th Heaven - 2008, FLAC (tracks+.cue), lossless
Треклист:
Samuel Blaser Quartet / 7th Heaven
Жанр: Free Improvisation, Between the Lines
Страна-производитель диска: Germany
Год издания: 2008
Издатель (лейбл): Between the Lines
Номер по каталогу: BTLCHR71217
Аудиокодек: FLAC (*.flac)
Тип рипа: tracks+.cue
Битрейт аудио: lossless
Продолжительность: 57:25
Источник (релизер): Max Monteiro
Наличие сканов в содержимом раздачи: да
Треклист:
1. Sans titre 5:57
2. Au 7e ciel 9:49
Métamorphose Suite
3. I : Métamorphose 12:37
4. II : Entre-Deux 8:39
5. III : Métaphore 7:33
6. On 175th Street 6:34
7. La Vache 6:16
All compositions by Samuel Blaser.
 
Лог создания рипа
Exact Audio Copy V1.0 beta 3 from 29. August 2011
EAC extraction logfile from 30. April 2013, 13:26
Samuel Blaser Quartet / 7th Heaven
Used drive : SlimtypeeNAU508 5 Adapter: 1 ID: 0
Read mode : Secure
Utilize accurate stream : Yes
Defeat audio cache : Yes
Make use of C2 pointers : No
Read offset correction : 6
Overread into Lead-In and Lead-Out : No
Fill up missing offset samples with silence : Yes
Delete leading and trailing silent blocks : No
Null samples used in CRC calculations : Yes
Used interface : Native Win32 interface for Win NT & 2000
Gap handling : Appended to previous track
Used output format : User Defined Encoder
Selected bitrate : 768 kBit/s
Quality : High
Add ID3 tag : No
Command line compressor : C:\Program Files (x86)\Exact Audio Copy\Flac\flac.exe
Additional command line options : -8 -V -T "ARTIST=%artist%" -T "TITLE=%title%" -T "ALBUM=%albumtitle%" -T "DATE=%year%" -T "TRACKNUMBER=%tracknr%" -T "GENRE=%genre%" -T "PERFORMER=%albuminterpret%" -T "COMPOSER=%composer%" %haslyrics%--tag-from-file=LYRICS="%lyricsfile%"%haslyrics% -T "ALBUMARTIST=%albumartist%" -T "DISCNUMBER=%cdnumber%" -T "TOTALDISCS=%totalcds%" -T "TOTALTRACKS=%numtracks%" -T "COMMENT=%comment%" %source% -o %dest%
TOC of the extracted CD
Track | Start | Length | Start sector | End sector
---------------------------------------------------------
1 | 0:00.00 | 5:57.11 | 0 | 26785
2 | 5:57.11 | 9:48.51 | 26786 | 70936
3 | 15:45.62 | 12:37.07 | 70937 | 127718
4 | 28:22.69 | 8:39.01 | 127719 | 166644
5 | 37:01.70 | 7:32.72 | 166645 | 200616
6 | 44:34.67 | 6:34.33 | 200617 | 230199
7 | 51:09.25 | 6:15.65 | 230200 | 258389
Track 1
Filename C:\EAC rips\01 - Sans titre.wav
Pre-gap length 0:00:02.00
Peak level 95.5 %
Extraction speed 2.4 X
Track quality 100.0 %
Test CRC DF2F5D7C
Copy CRC DF2F5D7C
Accurately ripped (confidence 1) [A493F287] (AR v1)
Copy OK
Track 2
Filename C:\EAC rips\02 - Au 7e ciel.wav
Peak level 100.0 %
Extraction speed 3.0 X
Track quality 100.0 %
Test CRC 1D097FA7
Copy CRC 1D097FA7
Accurately ripped (confidence 1) [F2385CCE] (AR v1)
Copy OK
Track 3
Filename C:\EAC rips\03 - Métamorphose Suite I - Métamorphose.wav
Peak level 100.0 %
Extraction speed 3.6 X
Track quality 100.0 %
Test CRC 1EE232BB
Copy CRC 1EE232BB
Accurately ripped (confidence 1) [6A393958] (AR v1)
Copy OK
Track 4
Filename C:\EAC rips\04 - Métamorphose Suite II - Entre-Deux.wav
Peak level 84.3 %
Extraction speed 3.9 X
Track quality 100.0 %
Test CRC 577E9ECE
Copy CRC 577E9ECE
Accurately ripped (confidence 1) [81C112B9] (AR v1)
Copy OK
Track 5
Filename C:\EAC rips\05 - Métamorphose Suite III - Métaphore.wav
Peak level 92.5 %
Extraction speed 4.2 X
Track quality 100.0 %
Test CRC CCC5DF20
Copy CRC CCC5DF20
Accurately ripped (confidence 1) [D163214B] (AR v1)
Copy OK
Track 6
Filename C:\EAC rips\06 - On 175th Street.wav
Peak level 90.8 %
Extraction speed 4.3 X
Track quality 100.0 %
Test CRC 0361E8CE
Copy CRC 0361E8CE
Accurately ripped (confidence 1) [A8CA00BE] (AR v1)
Copy OK
Track 7
Filename C:\EAC rips\07 - La Vache.wav
Peak level 100.0 %
Extraction speed 4.5 X
Track quality 100.0 %
Test CRC 81B68819
Copy CRC 81B68819
Accurately ripped (confidence 1) [90184C26] (AR v1)
Copy OK
All tracks accurately ripped
No errors occurred
End of status report
---- CUETools DB Plugin V2.1.4
[CTDB TOCID: 6G40o0gNI0s9_uJ.nD5sTfrtbYQ-] found
Submit result: 6G40o0gNI0s9_uJ.nD5sTfrtbYQ- has been confirmed
Track | CTDB Status
1 | (1/1) Accurately ripped
2 | (1/1) Accurately ripped
3 | (1/1) Accurately ripped
4 | (1/1) Accurately ripped
5 | (1/1) Accurately ripped
6 | (1/1) Accurately ripped
7 | (1/1) Accurately ripped
==== Log checksum 97AED919A3A7E34657F76070B8E61BB3BB881B24D642A4212974F628F0313849 ====
 
Содержание индексной карты (.CUE)
REM GENRE 2008
REM DATE Jazz
REM DISCID 5C0D7507
REM COMMENT "ExactAudioCopy v1.0b3"
PERFORMER "Samuel Blaser Quartet"
TITLE "7th Heaven"
FILE "01 - Sans titre.wav" WAVE
TRACK 01 AUDIO
TITLE "Sans titre"
PERFORMER "Samuel Blaser Quartet"
FLAGS DCP
INDEX 01 00:00:00
FILE "02 - Au 7e ciel.wav" WAVE
TRACK 02 AUDIO
TITLE "Au 7e ciel"
PERFORMER "Samuel Blaser Quartet"
FLAGS DCP
INDEX 01 00:00:00
FILE "03 - Métamorphose Suite I - Métamorphose.wav" WAVE
TRACK 03 AUDIO
TITLE "Métamorphose Suite I: Métamorphose"
PERFORMER "Samuel Blaser Quartet"
FLAGS DCP
INDEX 01 00:00:00
FILE "04 - Métamorphose Suite II - Entre-Deux.wav" WAVE
TRACK 04 AUDIO
TITLE "Métamorphose Suite II: Entre-Deux"
PERFORMER "Samuel Blaser Quartet"
FLAGS DCP
INDEX 01 00:00:00
FILE "05 - Métamorphose Suite III - Métaphore.wav" WAVE
TRACK 05 AUDIO
TITLE "Métamorphose Suite III: Métaphore"
PERFORMER "Samuel Blaser Quartet"
FLAGS DCP
INDEX 01 00:00:00
FILE "06 - On 175th Street.wav" WAVE
TRACK 06 AUDIO
TITLE "On 175th Street"
PERFORMER "Samuel Blaser Quartet"
FLAGS DCP
INDEX 01 00:00:00
FILE "07 - La Vache.wav" WAVE
TRACK 07 AUDIO
TITLE "La Vache"
PERFORMER "Samuel Blaser Quartet"
FLAGS DCP
INDEX 01 00:00:00
Доп. информация: Recorded on November 15th, 2006 at studio 15, Maison de la Radio, Lausanne, Switzerland.
 
Состав
Samuel Blaser – Trombone
Scott Dubois – Guitar
Thomas Morgan – Double Bass
Gerald Cleaver – Drums
Any questions -> support@pro-jazz.com. По всем вопросам пишите -> support@pro-jazz.com
11:40
138
Нет комментариев. Ваш будет первым!