Поиск

(Free Improvisation, Free Jazz) [CD] Matthias Schubert, Simon Nabatov - Descriptions - 2013, FLAC (tracks+.cue), lossless

(Free Improvisation, Free Jazz) [CD] Matthias Schubert, Simon Nabatov - Descriptions - 2013, FLAC (tracks+.cue), lossless
Треклист:
Matthias Schubert, Simon Nabatov / Descriptions
Жанр: Free Improvisation, Free Jazz
Носитель: CD
Страна-производитель диска (релиза): UK
Год издания: 2013
Издатель (лейбл): Leo Records
Номер по каталогу: CD LR 686
Аудиокодек: FLAC (*.flac)
Тип рипа: tracks+.cue
Битрейт аудио: lossless
Продолжительность: 61:06
Источник (релизер): cd
Наличие сканов в содержимом раздачи: нет
Треклист:
1. Insistence 2:10
2. Discretion 1:48
3. Enhancement 2:06
4. Delusion 3:27
5. Enrichment 7:02
6. Expansion 16:49
7. Obliqueness 8:42
8. Inhibition 9:01
9. Brashness 2:51
10. Accordance 6:32
 
Лог создания рипа
Exact Audio Copy V1.0 beta 3 from 29. August 2011
EAC extraction logfile from 2. February 2015, 12:31
Matthias Schubert, Simon Nabatov / Descriptions
Used drive : ASUS DRW-24F1ST a Adapter: 0 ID: 0
Read mode : Secure
Utilize accurate stream : Yes
Defeat audio cache : Yes
Make use of C2 pointers : No
Read offset correction : 6
Overread into Lead-In and Lead-Out : No
Fill up missing offset samples with silence : Yes
Delete leading and trailing silent blocks : No
Null samples used in CRC calculations : Yes
Used interface : Native Win32 interface for Win NT & 2000
Gap handling : Appended to previous track
Used output format : User Defined Encoder
Selected bitrate : 320 kBit/s
Quality : High
Add ID3 tag : No
Command line compressor : D:\Programs\Exact Audio Copy\Flac\flac.exe
Additional command line options : -V -8 -T "Genre=%genre%" -T "Artist=%artist%" -T "Title=%title%" -T "Album=%albumtitle%" -T "Date=%year%" -T "Tracknumber=%tracknr%" -T "Comment=%comment%" %source%
TOC of the extracted CD
Track | Start | Length | Start sector | End sector
---------------------------------------------------------
1 | 0:00.00 | 2:13.58 | 0 | 10032
2 | 2:13.58 | 1:51.40 | 10033 | 18397
3 | 4:05.23 | 2:09.43 | 18398 | 28115
4 | 6:14.66 | 3:29.48 | 28116 | 43838
5 | 9:44.39 | 7:07.19 | 43839 | 75882
6 | 16:51.58 | 16:53.58 | 75883 | 151915
7 | 33:45.41 | 8:47.56 | 151916 | 191496
8 | 42:33.22 | 9:05.51 | 191497 | 232422
9 | 51:38.73 | 2:55.09 | 232423 | 245556
10 | 54:34.07 | 6:32.57 | 245557 | 275013
Track 1
Filename D:\EAC\01 Insistence.wav
Pre-gap length 0:00:02.00
Peak level 88.8 %
Extraction speed 3.1 X
Track quality 99.9 %
Test CRC 7077CD27
Copy CRC 7077CD27
Copy OK
Track 2
Filename D:\EAC\02 Discretion.wav
Pre-gap length 0:00:03.49
Peak level 99.9 %
Extraction speed 3.1 X
Track quality 99.9 %
Test CRC 90D3E3A2
Copy CRC 90D3E3A2
Copy OK
Track 3
Filename D:\EAC\03 Enhancement.wav
Pre-gap length 0:00:02.48
Peak level 99.7 %
Extraction speed 4.1 X
Track quality 100.0 %
Test CRC E401EDC2
Copy CRC E401EDC2
Copy OK
Track 4
Filename D:\EAC\04 Delusion.wav
Pre-gap length 0:00:02.74
Peak level 100.0 %
Extraction speed 4.8 X
Track quality 100.0 %
Test CRC 205132D8
Copy CRC 205132D8
Copy OK
Track 5
Filename D:\EAC\05 Enrichment.wav
Pre-gap length 0:00:01.74
Peak level 100.0 %
Extraction speed 5.4 X
Track quality 99.9 %
Test CRC 32836BDF
Copy CRC 32836BDF
Copy OK
Track 6
Filename D:\EAC\06 Expansion.wav
Pre-gap length 0:00:04.73
Peak level 99.7 %
Extraction speed 7.2 X
Track quality 100.0 %
Test CRC 732851BA
Copy CRC 732851BA
Copy OK
Track 7
Filename D:\EAC\07 Obliqueness.wav
Pre-gap length 0:00:03.74
Peak level 100.0 %
Extraction speed 7.9 X
Track quality 100.0 %
Test CRC 5CEF4730
Copy CRC 5CEF4730
Copy OK
Track 8
Filename D:\EAC\08 Inhibition.wav
Pre-gap length 0:00:04.74
Peak level 99.6 %
Extraction speed 8.4 X
Track quality 100.0 %
Test CRC 8D39DD35
Copy CRC 8D39DD35
Copy OK
Track 9
Filename D:\EAC\09 Brashness.wav
Pre-gap length 0:00:03.74
Peak level 99.7 %
Extraction speed 7.6 X
Track quality 100.0 %
Test CRC 127DE1A7
Copy CRC 127DE1A7
Copy OK
Track 10
Filename D:\EAC\10 Accordance.wav
Pre-gap length 0:00:03.74
Peak level 48.8 %
Extraction speed 8.1 X
Track quality 99.9 %
Test CRC 51DABD3C
Copy CRC 51DABD3C
Copy OK
No errors occurred
End of status report
==== Log checksum 5453E5904290EAB14EF912F46538C2FAA8EAA4943E4F9CBE53FB489FDF3499D1 ====
 
Содержание индексной карты (.CUE)
REM GENRE Jazz
REM DATE 2013
REM DISCID 720E520A
REM COMMENT "ExactAudioCopy v1.0b3"
PERFORMER "Matthias Schubert, Simon Nabatov"
TITLE "Descriptions"
FILE "01 Insistence.wav" WAVE
TRACK 01 AUDIO
TITLE "Insistence"
PERFORMER "Matthias Schubert, Simon Nabatov"
ISRC GBJZD1300500
INDEX 01 00:00:00
TRACK 02 AUDIO
TITLE "Discretion"
PERFORMER "Matthias Schubert, Simon Nabatov"
ISRC GBJZD1300501
INDEX 00 02:10:09
FILE "02 Discretion.wav" WAVE
INDEX 01 00:00:00
TRACK 03 AUDIO
TITLE "Enhancement"
PERFORMER "Matthias Schubert, Simon Nabatov"
ISRC GBJZD1300502
INDEX 00 01:48:67
FILE "03 Enhancement.wav" WAVE
INDEX 01 00:00:00
TRACK 04 AUDIO
TITLE "Delusion"
PERFORMER "Matthias Schubert, Simon Nabatov"
ISRC GBJZD1300503
INDEX 00 02:06:44
FILE "04 Delusion.wav" WAVE
INDEX 01 00:00:00
TRACK 05 AUDIO
TITLE "Enrichment"
PERFORMER "Matthias Schubert, Simon Nabatov"
ISRC GBJZD1300504
INDEX 00 03:27:49
FILE "05 Enrichment.wav" WAVE
INDEX 01 00:00:00
TRACK 06 AUDIO
TITLE "Expansion"
PERFORMER "Matthias Schubert, Simon Nabatov"
ISRC GBJZD1300505
INDEX 00 07:02:21
FILE "06 Expansion.wav" WAVE
INDEX 01 00:00:00
TRACK 07 AUDIO
TITLE "Obliqueness"
PERFORMER "Matthias Schubert, Simon Nabatov"
ISRC GBJZD1300506
INDEX 00 16:49:59
FILE "07 Obliqueness.wav" WAVE
INDEX 01 00:00:00
TRACK 08 AUDIO
TITLE "Inhibition"
PERFORMER "Matthias Schubert, Simon Nabatov"
ISRC GBJZD1300507
INDEX 00 08:42:57
FILE "08 Inhibition.wav" WAVE
INDEX 01 00:00:00
TRACK 09 AUDIO
TITLE "Brashness"
PERFORMER "Matthias Schubert, Simon Nabatov"
ISRC GBJZD1300508
INDEX 00 09:01:52
FILE "09 Brashness.wav" WAVE
INDEX 01 00:00:00
TRACK 10 AUDIO
TITLE "Accordance"
PERFORMER "Matthias Schubert, Simon Nabatov"
ISRC GBJZD1300509
INDEX 00 02:51:10
FILE "10 Accordance.wav" WAVE
INDEX 01 00:00:00
Доп. информация: Recorded at Loft, Cologne, May 14 2012
 
Об альбоме (сборнике)
German saxophonist Matthias Schubert met the Russian pianist Simon Nabatov in New York in 1984, when they were in their mid-20s. They worked together in various groups over the years, but Descriptions – recorded live at Loft in Cologne in May 2012 – is their first duet release.
The concert bears the hallmarks of a pair who know each other well (Nabatov has been based in Cologne since 1989), and Nick Duvidowski’s liner essay astutely observes that Schubert and Nabatov avoid “the clichés of improvised music, that of tending to behave like a flock of birds, always flying and turning together”. And so it is that some of the session comes across as more of a kerfuffle than a conversation, making a variously fascinating and challenging experience.
The ten improvisations vary in length from less than two minutes to almost 17. Schubert displays a wide spectrum of expression: gruffness on Insistence, kissing and spluttering during Inhibition, and “normal” tone production on Obliqueness. The piano’s capability for variety may be more restricted, but Nabatov creates koto-like passages, odd muffled effects, creaking and knocking as he manipulates the strings, keyboard and woodwork.
Enhancement begins with a rising arpeggio by Nabatov that is reflected in a falling figure from Schubert. A harnessed vamp is interrupted by an interlude that sets a repetitive saxophone riff against hard hitting, Don Pullen-like piano, before it dissolves towards conciliation. During Enrichment, the tenor is hissy and urgently slap-tongued, while the piano is muted and its strings are carefully plucked and strummed. There are tinkling chords, moments of stasis, and a few odd noises that seem as if they couldn’t possibly have been produced by the tools at hand.
The longest track, Expansion, is relatively straightforward at first - and almost pretty at times - although it remains jolly difficult to see exactly how the players are relating to each other. The clicking of the saxophone’s levers is pitted against the rumbling piano; then there’s a section in which “avant garde fours” are exchanged as Schubert alternates conventional and whooshing sounds between Nabatov’s phrases. The sax fixes on lengthy notes that become unsteady and turbulent as the piano tumbles underneath, and together they build to a loud and violent climax. Common ground is eventually found, and calm prevails at the conclusion.
It’s unlikely to impress your girlfriend’s parents when they come over for dinner, but this is demanding, thought-provoking stuff from two leading exponents of European free jazz.
 
Состав
Piano – Simon Nabatov
Tenor Saxophone – Matthias Schubert
По всем вопросам пишите личное сообщение пользователю M0p94ok.
08:55
150
Нет комментариев. Ваш будет первым!