Поиск

(Free Improvisation) [CD] Queen Mab Trio (Ig Henneman, Lori Freedman, Marilyn Lerner) - See Saw - 2005, FLAC (tracks+.cue), lossless

(Free Improvisation) [CD] Queen Mab Trio (Ig Henneman, Lori Freedman, Marilyn Lerner) - See Saw - 2005, FLAC (tracks+.cue), lossless
Queen Mab Trio / See Saw
Жанр: Free Improvisation
Носитель: CD
Страна-производитель диска (релиза): Netherlands
Год издания: 2005
Издатель (лейбл): Wig
Номер по каталогу: 11
Аудиокодек: FLAC (*.flac)
Тип рипа: tracks+.cue
Битрейт аудио: lossless
Продолжительность: 51:25
Источник (релизер): cd
Наличие сканов в содержимом раздачи: нет
Треклист:
1. See Saw 4:56
2. Shift 5:35
3. Galina U 8:40
4. Himalaya 9:27
5. June 2th 4:57
6. Chorale 4:52
7. Lori F 4:14
8. Three Strikes 9:09
9. Marilyn L. 4:41
10. Exchange 4:19
 
Лог создания рипа
Exact Audio Copy V1.0 beta 3 from 29. August 2011
EAC extraction logfile from 23. January 2015, 18:01
Queen Mab Trio / See Saw
Used drive : ASUS DRW-24F1ST a Adapter: 0 ID: 0
Read mode : Secure
Utilize accurate stream : Yes
Defeat audio cache : Yes
Make use of C2 pointers : No
Read offset correction : 6
Overread into Lead-In and Lead-Out : No
Fill up missing offset samples with silence : Yes
Delete leading and trailing silent blocks : No
Null samples used in CRC calculations : Yes
Used interface : Native Win32 interface for Win NT & 2000
Gap handling : Appended to previous track
Used output format : User Defined Encoder
Selected bitrate : 320 kBit/s
Quality : High
Add ID3 tag : No
Command line compressor : D:\Programs\Exact Audio Copy\Flac\flac.exe
Additional command line options : -V -8 -T "Genre=%genre%" -T "Artist=%artist%" -T "Title=%title%" -T "Album=%albumtitle%" -T "Date=%year%" -T "Tracknumber=%tracknr%" -T "Comment=%comment%" %source%
TOC of the extracted CD
Track | Start | Length | Start sector | End sector
---------------------------------------------------------
1 | 0:00.00 | 4:56.24 | 0 | 22223
2 | 4:56.24 | 5:35.12 | 22224 | 47360
3 | 10:31.36 | 8:39.53 | 47361 | 86338
4 | 19:11.14 | 4:57.13 | 86339 | 108626
5 | 24:08.27 | 4:52.11 | 108627 | 130537
6 | 29:00.38 | 4:13.49 | 130538 | 149561
7 | 33:14.12 | 9:09.39 | 149562 | 190775
8 | 42:23.51 | 4:40.36 | 190776 | 211811
9 | 47:04.12 | 4:21.42 | 211812 | 231428
Track 1
Filename D:\EAC\01 See Saw.wav
Pre-gap length 0:00:02.00
Peak level 69.6 %
Extraction speed 1.7 X
Track quality 100.0 %
Test CRC C80114C7
Copy CRC C80114C7
Copy OK
Track 2
Filename D:\EAC\02 Shift.wav
Peak level 98.6 %
Extraction speed 2.0 X
Track quality 100.0 %
Test CRC 77DB2798
Copy CRC 77DB2798
Copy OK
Track 3
Filename D:\EAC\03 Galina U.wav
Peak level 94.3 %
Extraction speed 2.4 X
Track quality 100.0 %
Test CRC 6AEE88F9
Copy CRC 6AEE88F9
Copy OK
Track 4
Filename D:\EAC\04 June 2th.wav
Peak level 98.8 %
Extraction speed 2.6 X
Track quality 100.0 %
Test CRC 315C90A5
Copy CRC 315C90A5
Copy OK
Track 5
Filename D:\EAC\05 Chorale.wav
Peak level 60.1 %
Extraction speed 2.5 X
Track quality 99.9 %
Test CRC 9D751AE6
Copy CRC 9D751AE6
Copy OK
Track 6
Filename D:\EAC\06 Lori F.wav
Peak level 88.9 %
Extraction speed 2.5 X
Track quality 99.9 %
Test CRC 9F324A27
Copy CRC 9F324A27
Copy OK
Track 7
Filename D:\EAC\07 Three Strikes.wav
Peak level 96.4 %
Extraction speed 3.3 X
Track quality 100.0 %
Test CRC C4A899A3
Copy CRC C4A899A3
Copy OK
Track 8
Filename D:\EAC\08 Marilyn L.wav
Peak level 88.0 %
Extraction speed 3.3 X
Track quality 100.0 %
Test CRC 7B2CEEE3
Copy CRC 7B2CEEE3
Copy OK
Track 9
Filename D:\EAC\09 Exchange.wav
Peak level 68.2 %
Extraction speed 3.3 X
Track quality 100.0 %
Test CRC B2B18034
Copy CRC B2B18034
Copy OK
No errors occurred
End of status report
==== Log checksum CEA67B2886DD5E8F1EE7F428C1F581D363EACC202396068E12F2C9039DEDE9CC ====
 
Содержание индексной карты (.CUE)
REM GENRE "Free Improvisation"
REM DATE 2005
REM DISCID 7E0C0D09
REM COMMENT "ExactAudioCopy v1.0b3"
PERFORMER "Queen Mab Trio"
TITLE "See Saw"
FILE "01 See Saw.wav" WAVE
TRACK 01 AUDIO
TITLE "See Saw"
PERFORMER "Queen Mab Trio"
ISRC NLE690500001
INDEX 01 00:00:00
FILE "02 Shift.wav" WAVE
TRACK 02 AUDIO
TITLE "Shift"
PERFORMER "Queen Mab Trio"
ISRC NLE690500002
INDEX 01 00:00:00
FILE "03 Galina U.wav" WAVE
TRACK 03 AUDIO
TITLE "Galina U"
PERFORMER "Queen Mab Trio"
ISRC NLE690500003
INDEX 01 00:00:00
FILE "04 June 2th.wav" WAVE
TRACK 04 AUDIO
TITLE "June 2th"
PERFORMER "Queen Mab Trio"
ISRC NLE690500004
INDEX 01 00:00:00
FILE "05 Chorale.wav" WAVE
TRACK 05 AUDIO
TITLE "Chorale"
PERFORMER "Queen Mab Trio"
ISRC NLE690500005
INDEX 01 00:00:00
FILE "06 Lori F.wav" WAVE
TRACK 06 AUDIO
TITLE "Lori F"
PERFORMER "Queen Mab Trio"
ISRC NLE690500006
INDEX 01 00:00:00
FILE "07 Three Strikes.wav" WAVE
TRACK 07 AUDIO
TITLE "Three Strikes"
PERFORMER "Queen Mab Trio"
ISRC NLE690500006
INDEX 01 00:00:00
FILE "08 Marilyn L.wav" WAVE
TRACK 08 AUDIO
TITLE "Marilyn L"
PERFORMER "Queen Mab Trio"
ISRC NLE690500008
INDEX 01 00:00:00
FILE "09 Exchange.wav" WAVE
TRACK 09 AUDIO
TITLE "Exchange"
PERFORMER "Queen Mab Trio"
ISRC NLE690500008
INDEX 01 00:00:00
Доп. информация: Live recording during Canadian tour 2002
 
Состав
Bass Clarinet, Clarinet – Lori Freedman
Piano – Marilyn Lerner
Viola – Ig Henneman
08:53
283
Нет комментариев. Ваш будет первым!