Вы используете незарегистрированную версию компонента "Вкладки"!

Поиск

(Free Improvisation, Contemporary Jazz) [CD] Dom Minasi - When Joanna Loved Me - 1974 (2013 Japan Edition), FLAC (image+.cue), lossless

(Free Improvisation, Contemporary Jazz) [CD] Dom Minasi - When Joanna Loved Me - 1974 (2013 Japan Edition), FLAC (image+.cue), lossless
Треклист:
Dom Minasi - When Joanna Loved Me
Жанр: Free Improvisation, Contemporary Jazz
Носитель: CD
Страна-производитель диска (релиза): Япония
Год издания: 2013
Издатель (лейбл): Blue Note/Toshiba-EMI
Номер по каталогу: TOCJ-50572
Страна исполнителя (группы): США
Аудиокодек: FLAC (*.flac)
Тип рипа: image+.cue
Битрейт аудио: lossless
Продолжительность: 35:11
Источник (релизер): диск из моей коллекции
Наличие сканов в содержимом раздачи: да
Треклист:
01. Spinning Wheel (Thomas) - 6:07
02. When Joanna Loved Me (Wells-Segal) - 4:53
03. On Green Dolphin Street (Kaper-Washington) - 8:35
04. With a Little Help from My Friends (Lennon-McCartney) - 7:35
05. What Are You Doing the Rest of Your Life (Legrand-Bergman-Bergman) - 3:41
06. I'll Only Miss Her (When I Think of Her) (Cahn-Van Heusen) - 4:19
Состав:
Dom Minasi - guitar, arranger
Joseph Daddiego - conga, percussion
Bud Nealy - drums, percussion
Garry Newman - bass
Paul Winter, Peter Dimitriades - violin
Harry Zarotzian, Seymour Berman - viola
Kermit Moore, Seymour Barab - cello
Gene Bianco - harp
Strings arranged and conducted by Wase Marcus.
Recorded at A&R Recording Studio, New York on March 19-21, 1974.
 
Лог создания рипа
Exact Audio Copy V1.0 beta 4 from 7. December 2014
EAC extraction logfile from 2. February 2015, 17:15
Dom Minasi / When Joanna Loved Me
Used drive : ASUS DRW-24B1LT Adapter: 1 ID: 1
Read mode : Secure
Utilize accurate stream : Yes
Defeat audio cache : Yes
Make use of C2 pointers : No
Read offset correction : 6
Overread into Lead-In and Lead-Out : No
Fill up missing offset samples with silence : Yes
Delete leading and trailing silent blocks : No
Null samples used in CRC calculations : Yes
Used interface : Native Win32 interface for Win NT & 2000
Used output format : User Defined Encoder
Selected bitrate : 768 kBit/s
Quality : High
Add ID3 tag : No
Command line compressor : C:\Program Files\Exact Audio Copy\Flac\flac.exe
Additional command line options : -8 -V -T "ARTIST=%artist%" -T "TITLE=%title%" -T "ALBUM=%albumtitle%" -T "DATE=%year%" -T "TRACKNUMBER=%tracknr%" -T "TOTALTRACKS=%numtracks%" -T "GENRE=%genre%" -T "ALBUMARTIST=%albumartist%" -T "ALBUM ARTIST=%albumartist%" -T "COMMENT=EAC Secure Mode, Test & Copy, AccurateRip, FLAC -8" %source%
TOC of the extracted CD
Track | Start | Length | Start sector | End sector
---------------------------------------------------------
1 | 0:00.00 | 6:07.20 | 0 | 27544
2 | 6:07.20 | 4:53.24 | 27545 | 49543
3 | 11:00.44 | 8:35.22 | 49544 | 88190
4 | 19:35.66 | 7:34.53 | 88191 | 122293
5 | 27:10.44 | 3:40.69 | 122294 | 138862
6 | 30:51.38 | 4:19.14 | 138863 | 158301
Range status and errors
Selected range
Filename F:\audio\Dom Minasi - When Joanna Loved Me.wav
Peak level 100.0 %
Extraction speed 5.0 X
Range quality 100.0 %
Test CRC DBD35119
Copy CRC DBD35119
Copy OK
No errors occurred
AccurateRip summary
Track 1 not present in database
Track 2 not present in database
Track 3 not present in database
Track 4 not present in database
Track 5 not present in database
Track 6 not present in database
None of the tracks are present in the AccurateRip database
End of status report
---- CUETools DB Plugin V2.1.4
[CTDB TOCID: bdVmDOfB3Gx.SdoRo9RYiVPZWXk-] disk not present in database
Submit result: bdVmDOfB3Gx.SdoRo9RYiVPZWXk- has been uploaded
==== Log checksum C9153B00818D566D4D65BB13BE303B9B8D25B8AD608D21CA4EDD1B7FFB1CF2B4 ====
 
Содержание индексной карты (.CUE)
REM GENRE Jazz
REM DATE 1974
REM DISCID 4F083E06
REM COMMENT "ExactAudioCopy v1.0b4"
PERFORMER "Dom Minasi"
TITLE "When Joanna Loved Me"
FILE "Dom Minasi - When Joanna Loved Me.wav" WAVE
TRACK 01 AUDIO
TITLE "Spinning Wheel"
PERFORMER "Dom Minasi"
INDEX 01 00:00:00
TRACK 02 AUDIO
TITLE "When Joanna Loved Me"
PERFORMER "Dom Minasi"
INDEX 00 06:05:69
INDEX 01 06:07:20
TRACK 03 AUDIO
TITLE "On Green Dolphin Street"
PERFORMER "Dom Minasi"
INDEX 00 10:58:73
INDEX 01 11:00:44
TRACK 04 AUDIO
TITLE "With a Little Help from My Friends"
PERFORMER "Dom Minasi"
INDEX 00 19:33:31
INDEX 01 19:35:66
TRACK 05 AUDIO
TITLE "What Are You Doing the Rest of Your Life"
PERFORMER "Dom Minasi"
INDEX 00 27:08:23
INDEX 01 27:10:44
TRACK 06 AUDIO
TITLE "I'll Only Miss Her (When I Think of Her)"
PERFORMER "Dom Minasi"
INDEX 00 30:50:25
INDEX 01 30:51:38
 
Отчет CUETools
[CUETools log; Date: 02.02.2015 17:16:42; Version: 2.1.5]
[CTDB TOCID: bdVmDOfB3Gx.SdoRo9RYiVPZWXk-] found.
Track | CTDB Status
1 | (1/1) Accurately ripped
2 | (1/1) Accurately ripped
3 | (1/1) Accurately ripped
4 | (1/1) Accurately ripped
5 | (1/1) Accurately ripped
6 | (1/1) Accurately ripped
[AccurateRip ID: 0008ec23-002f7181-4f083e06] disk not present in database.
Track Peak [ CRC32 ] [W/O NULL] [ LOG ]
-- 100,0 [DBD35119] [2997E0D1] CRC32
01 97,4 [060D45AD] [0E64E9A1]
02 96,8 [FCB0729F] [6F2E3FD2]
03 100,0 [E232D1B5] [476AC159]
04 98,0 [818DEDA3] [BFEBB293]
05 96,8 [EAF75808] [B6B9BC58]
06 96,9 [E70C382F] [3F666802]
 
Об альбоме (сборнике)
A compelling little record from guitarist Dom Minasi – a player we only know from these few Blue Note albums cut right toward's the label's initial run – sweet albums that might have pushed Dom further, had they gotten better exposure! Minasi's a pretty talented guitarist – with a style that's somewhere between the quirkiness of Sonny Greenwich, and the smooth sound of Earl Klugh – and while the style here might show some of the elements of Klugh's initial work for Blue Note, the overall presentation is a lot more stripped down – never too smooth, and with plenty of focus on the jazz elements in Dom's music. Titles include "On Green Dolphin Street", "Spinning Wheel", "When Joanna Loved Me", and "With A Little Help From My Friends".
По всем вопросам пишите личное сообщение пользователю M0p94ok.
08:55
169
Нет комментариев. Ваш будет первым!