Вы используете незарегистрированную версию компонента "Вкладки"!

Поиск

(Free Improvisation, Contemporary Jazz) [CD] Dom Minasi - I Have the Feeling I've Been Here Before - 1975 (2013 Japan Edition), FLAC (image+.cue), lossless

(Free Improvisation, Contemporary Jazz) [CD] Dom Minasi - I Have the Feeling I've Been Here Before - 1975 (2013 Japan Edition), FLAC (image+.cue), lossless
Треклист:
Dom Minasi - I Have the Feeling I've Been Here Before
Жанр: Free Improvisation, Contemporary Jazz
Носитель: CD
Страна-производитель диска (релиза): Япония
Год издания: 2013
Издатель (лейбл): Blue Note/Toshiba-EMI
Номер по каталогу: TOCJ-50574
Страна исполнителя (группы): США
Аудиокодек: FLAC (*.flac)
Тип рипа: image+.cue
Битрейт аудио: lossless
Продолжительность: 37:23
Источник (релизер): диск из моей коллекции
Наличие сканов в содержимом раздачи: да
Треклист:
01. R.K. Bossa (Kellaway) - 4:37
02. You've Been Away Too Long (Ighner) - 3:20
03. I Have the Feeling I've Been Here Before (Kellaway-Bergman-Bergman) - 2:39
04. Bitzy (Olson) - 2:39
05. Sometime Boogie (Kellaway) - 4:40
06. Moroccan Copper (Ighner) - 5:49
07. Free (MacKay-Hamilton) - 3:40
08. Theme from Prisoner of Second Avenue (Hamlisch) - 3:49
09. Soltura (Kellaway) - 6:11
 
Лог создания рипа
Exact Audio Copy V1.0 beta 4 from 7. December 2014
EAC extraction logfile from 2. February 2015, 18:15
Dom Minasi / I Have the Feeling I've Been Here Before
Used drive : ASUS DRW-24B1LT Adapter: 1 ID: 1
Read mode : Secure
Utilize accurate stream : Yes
Defeat audio cache : Yes
Make use of C2 pointers : No
Read offset correction : 6
Overread into Lead-In and Lead-Out : No
Fill up missing offset samples with silence : Yes
Delete leading and trailing silent blocks : No
Null samples used in CRC calculations : Yes
Used interface : Native Win32 interface for Win NT & 2000
Used output format : User Defined Encoder
Selected bitrate : 768 kBit/s
Quality : High
Add ID3 tag : No
Command line compressor : C:\Program Files\Exact Audio Copy\Flac\flac.exe
Additional command line options : -8 -V -T "ARTIST=%artist%" -T "TITLE=%title%" -T "ALBUM=%albumtitle%" -T "DATE=%year%" -T "TRACKNUMBER=%tracknr%" -T "TOTALTRACKS=%numtracks%" -T "GENRE=%genre%" -T "ALBUMARTIST=%albumartist%" -T "ALBUM ARTIST=%albumartist%" -T "COMMENT=EAC Secure Mode, Test & Copy, AccurateRip, FLAC -8" %source%
TOC of the extracted CD
Track | Start | Length | Start sector | End sector
---------------------------------------------------------
1 | 0:00.00 | 4:37.26 | 0 | 20800
2 | 4:37.26 | 3:20.21 | 20801 | 35821
3 | 7:57.47 | 2:38.50 | 35822 | 47721
4 | 10:36.22 | 2:38.65 | 47722 | 59636
5 | 13:15.12 | 4:39.50 | 59637 | 80611
6 | 17:54.62 | 5:48.62 | 80612 | 106773
7 | 23:43.49 | 3:39.59 | 106774 | 123257
8 | 27:23.33 | 3:49.15 | 123258 | 140447
9 | 31:12.48 | 6:10.55 | 140448 | 168252
Range status and errors
Selected range
Filename F:\audio\Dom Minasi - I Have the Feeling I've Been Here Before.wav
Peak level 97.8 %
Extraction speed 5.1 X
Range quality 100.0 %
Test CRC 384C2079
Copy CRC 384C2079
Copy OK
No errors occurred
AccurateRip summary
Track 1 not present in database
Track 2 not present in database
Track 3 not present in database
Track 4 not present in database
Track 5 not present in database
Track 6 not present in database
Track 7 not present in database
Track 8 not present in database
Track 9 not present in database
None of the tracks are present in the AccurateRip database
End of status report
---- CUETools DB Plugin V2.1.4
[CTDB TOCID: lNz2nkm9p3SZk3dLL6hQtpEIzdg-] disk not present in database
Submit result: lNz2nkm9p3SZk3dLL6hQtpEIzdg- has been uploaded
==== Log checksum 67CDEC4546F826F7C8996FCA75110C4BB004FD42147FDB2D7732CC803D46DE27 ====
 
Содержание индексной карты (.CUE)
REM GENRE Jazz
REM DATE 1975
REM DISCID 8E08C309
REM COMMENT "ExactAudioCopy v1.0b4"
PERFORMER "Dom Minasi"
TITLE "I Have the Feeling I've Been Here Before"
FILE "Dom Minasi - I Have the Feeling I've Been Here Before.wav" WAVE
TRACK 01 AUDIO
TITLE "R.K. Bossa"
PERFORMER "Dom Minasi"
INDEX 01 00:00:00
TRACK 02 AUDIO
TITLE "You've Been Away Too Long"
PERFORMER "Dom Minasi"
INDEX 00 04:37:10
INDEX 01 04:37:26
TRACK 03 AUDIO
TITLE "I Have the Feeling I've Been Here Before"
PERFORMER "Dom Minasi"
INDEX 01 07:57:47
TRACK 04 AUDIO
TITLE "Bitzy"
PERFORMER "Dom Minasi"
INDEX 00 10:36:08
INDEX 01 10:36:22
TRACK 05 AUDIO
TITLE "Sometime Boogie"
PERFORMER "Dom Minasi"
INDEX 00 13:14:34
INDEX 01 13:15:12
TRACK 06 AUDIO
TITLE "Moroccan Copper"
PERFORMER "Dom Minasi"
INDEX 00 17:53:57
INDEX 01 17:54:62
TRACK 07 AUDIO
TITLE "Free"
PERFORMER "Dom Minasi"
INDEX 00 23:43:14
INDEX 01 23:43:49
TRACK 08 AUDIO
TITLE "Theme from Prisoner of Second Avenue"
PERFORMER "Dom Minasi"
INDEX 00 27:21:62
INDEX 01 27:23:33
TRACK 09 AUDIO
TITLE "Soltura"
PERFORMER "Dom Minasi"
INDEX 01 31:12:48
 
Отчет CUETools
[CUETools log; Date: 02.02.2015 18:16:25; Version: 2.1.5]
[CTDB TOCID: lNz2nkm9p3SZk3dLL6hQtpEIzdg-] found.
Track | CTDB Status
1 | (1/1) Accurately ripped
2 | (1/1) Accurately ripped
3 | (1/1) Accurately ripped
4 | (1/1) Accurately ripped
5 | (1/1) Accurately ripped
6 | (1/1) Accurately ripped
7 | (1/1) Accurately ripped
8 | (1/1) Accurately ripped
9 | (1/1) Accurately ripped
[AccurateRip ID: 000bf3df-00588782-8e08c309] disk not present in database.
Track Peak [ CRC32 ] [W/O NULL] [ LOG ]
-- 97,8 [384C2079] [A634F87C] CRC32
01 97,2 [E4199C73] [F3450188]
02 97,8 [806A7EE1] [9112C3E4]
03 96,9 [FF1F0A3A] [11C07293]
04 97,5 [A533B213] [BA722709]
05 96,8 [514FB3BB] [186A2F3F]
06 97,4 [3BF690AC] [2D2C1E85]
07 97,0 [2F950B95] [A3E64BEB]
08 96,9 [5E4DAB0C] [8DDEDE84]
09 97,3 [134CA8F0] [F59F7C7D]
 
Об альбоме (сборнике)
Sweet guitar lines from Dom Minasi – a player who knows how to hit just the right sort of fluid vibe for this session! The album's got Dom soloing strongly over arrangements from Roger Kellaway, Byron Olson, and Bernard Ighner – all of whom bring some strong charts to the session, and give Minasi plenty of strong tones and colors to work with. The style shifts a bit throughout the record, but things are quite unified overall, with lots of compelling original tunes – and titles include "Moroccan Copper", "RK Bossa", "You've Been Away Too Long", "Sometime Boogie", "Bitzy", "Free", and "Theme From Prisoner Of Second Avenue".
 
Состав
Don Minasi - guitar
#1,3,5,7,9:
Bud Shank - flute, soprano saxophone
Dave Sherr - oboe, alto saxophone
Jack Nimitz - clarinet, baritone saxophone
Ray Pizzi - bassoon, tenor saxophone
Tony Terran, Ed Sheftel - trumpet, flugelhorn
Marni Robinson - French horn
Charles Loper - trombone
Roger Bobo - tuba
Harvey Mason, Victor Feldman, Gary Coleman - percussion
Jackie Lustgarten, Ann Goodman, Kathleen Lustgarten, Lucille Greco - celli
Gale Levant - harp
Roger Kellaway - keyboards
Charles Domanico - bass
Ron Krasinski - drums
#4,8:
Louis DiTullio - flute
Earl Dumler - oboe
Hugo Raimondi - clarinet
Jack Marsch - bassoon
Jim Decker - French horn
Mark Stevens - percussion
Gale Levant - harp
Fred Seykora, Dennis Karmazyn, Jackie Lustgarten, Christine Ermacoff - celli
John Morrell - acoustic guitar
Roger Kellaway - piano
Charles Domanico - bass
Harvey Mason - drums
#2,6:
Benard Ighner - trumpet, flugelhorn, percussion, Arp synthesizer
Warn Luening, Jay Diversa - trumpet, flugelhorn
George Bohanon - trombone
Keith Ighner - trombone, Fender bass
Ray Pizzi - tenor saxophone, flute
Bobbye Hall - congas
John Morrell - guitar
Roger Kellaway - Fender Rhodes piano
Brian Magnus - Fender bass
Harvey Mason - drums
Recorded at The Record Plant, Hollywood, CA in January 1975.
По всем вопросам пишите личное сообщение пользователю M0p94ok.
08:56
173
Нет комментариев. Ваш будет первым!