Вы используете незарегистрированную версию компонента "Вкладки"!

Поиск

(Free Improvisation) Franziska Baumann, Matthias Ziegler - Voices & Tides - 2007, FLAC (tracks+.cue), lossless

Треклист:
Franziska Baumann, Matthias Ziegler - Voices & Tides
Жанр: Free Improvisation
Год выпуска диска: 2007
Производитель диска: Leo Records CD LR 495
Аудио кодек: FLAC
Тип рипа: tracks+.cue
Битрейт аудио: lossless
Источник: СЕТъ
Продолжительность: 54:42
Трэклист:
01 Birsay 5:35
02 Tidal Speed 6:18
03 Inflow Tune 8:36
04 Critical Velocity 4:34
05 Watermouth 3:36
06 Hydrological - Groove 2:29
07 Why Dreams Like Loose Water... 4:02
08 Pacific Accident 6:58
09 Voices & Tides 12:20
Voice, Electronics [Sensorlab] - Franziska Baumann
Flute [Bass,contrabass], Electronics [Loops] - Matthias Ziegler
Mixed By, Mastered By - Andreas Neresheimer
Other [Liner Notes] - Johannes Anders
Producer - Franziska Baumann , Leo Feigin , Matthias Ziegler
Recorded By - Andreas Neresheimer (tracks: 3, 5-9) , Martin Pearson (tracks: 1,2,4)
Artwork By [Cover Design] - Claudia Brieske
Recorded:
Tracks 1,2 & 4: 10 May 2006 at Jazz Festival Schaffhausen
Tracks 3, 5 - 9: 1 March 2006 & 5 Kuly 2006 at Radiostudio DRS 2, Zürich
 
CUE
TITLE "Voices & Tides"
PERFORMER "Franziska Baumann & Matthias Ziegler"
REM GENRE "Jazz"
REM DATE 2007
REM DISCNUMBER 1
REM TOTALDISCS 1
REM DISCID 690CD209
FILE "01 - Birsay.wav" WAVE
TRACK 01 AUDIO
TITLE "Birsay"
SONGWRITER "Franziska Baumann & Matthias Ziegler"
ISRC GBJZD0500049
INDEX 01 00:00:00
TRACK 02 AUDIO
TITLE "Tidal Speed"
SONGWRITER "Franziska Baumann & Matthias Ziegler"
ISRC GBJZD0500050
INDEX 00 05:30:66
FILE "02 - Tidal Speed.wav" WAVE
INDEX 01 00:00:00
TRACK 03 AUDIO
TITLE "Inflow Tune"
SONGWRITER "Franziska Baumann & Matthias Ziegler"
ISRC GBJZD0500050
INDEX 00 06:15:47
FILE "03 - Inflow Tune.wav" WAVE
INDEX 01 00:00:00
TRACK 04 AUDIO
TITLE "Critical Velocity"
SONGWRITER "Franziska Baumann & Matthias Ziegler"
ISRC GBJZD0500051
INDEX 00 08:34:50
FILE "04 - Critical Velocity.wav" WAVE
INDEX 01 00:00:00
TRACK 05 AUDIO
TITLE "Watermouth"
SONGWRITER "Franziska Baumann & Matthias Ziegler"
ISRC GBJZD0500052
INDEX 00 04:33:04
FILE "05 - Watermouth.wav" WAVE
INDEX 01 00:00:00
TRACK 06 AUDIO
TITLE "Hydrological - Grove"
SONGWRITER "Franziska Baumann & Matthias Ziegler"
ISRC GBJZD0500054
INDEX 00 03:33:14
FILE "06 - Hydrological - Grove.wav" WAVE
INDEX 01 00:00:00
TRACK 07 AUDIO
TITLE "Why Dreams Like Loose Water"
SONGWRITER "Franziska Baumann & Matthias Ziegler"
ISRC GBJZD0500054
INDEX 00 02:35:06
FILE "07 - Why Dreams Like Loose Water.wav" WAVE
INDEX 01 00:00:00
TRACK 08 AUDIO
TITLE "Pacific Accident"
SONGWRITER "Franziska Baumann & Matthias Ziegler"
ISRC GBJZD0500055
INDEX 00 04:00:53
FILE "08 - Pacific Accident.wav" WAVE
INDEX 01 00:00:00
TRACK 09 AUDIO
TITLE "Voices & Tides"
SONGWRITER "Franziska Baumann & Matthias Ziegler"
ISRC GBJZD0500056
INDEX 00 06:56:24
FILE "09 - Voices & Tides.wav" WAVE
INDEX 01 00:00:00
 
XLD extraction logfile
X Lossless Decoder version 20100518 (120.3)
XLD extraction logfile from 2010-06-25 18:48:47 -0400
Franziska Baumann & Matthias Ziegler / Voices & Tides
Used drive : MATSHITA DVD-R UJ-868 (revision KB19)
Use cdparanoia mode : YES (CDParanoia III 10.2 engine)
Disable audio cache : OK for the drive with cache less than 2750KB
Make use of C2 pointers : NO
Read offset correction : 102
Max retry count : 100
TOC of the extracted CD
Track | Start | Length | Start sector | End sector
---------------------------------------------------------
1 | 00:00:00 | 05:34:46 | 0 | 25095
2 | 05:34:46 | 06:19:29 | 25096 | 53549
3 | 11:54:00 | 08:36:50 | 53550 | 92299
4 | 20:30:50 | 04:35:13 | 92300 | 112937
5 | 25:05:63 | 03:35:24 | 112938 | 129086
6 | 28:41:12 | 02:38:58 | 129087 | 140994
7 | 31:19:70 | 04:03:64 | 140995 | 159283
8 | 35:23:59 | 06:58:24 | 159284 | 190657
9 | 42:22:08 | 12:19:73 | 190658 | 246155
Track 01
Filename : /Volumes/G-DRIVE Q/kebab/01 - Birsay.flac
Pre-gap length : 00:02:00
CRC32 hash (test run) : 47F8FE77
CRC32 hash : 47F8FE77
CRC32 hash (skip zero) : E551DDD8
AccurateRip signature : 2E0FEC61
->Accurately ripped! (confidence 1)
Statistics
Read error : 0
Skipped (treated as error) : 0
Edge jitter error (maybe fixed) : 0
Atom jitter error (maybe fixed) : 0
Drift error (maybe fixed) : 0
Dropped bytes error (maybe fixed) : 0
Duplicated bytes error (maybe fixed) : 0
Inconsistency in error sectors : 0
Track 02
Filename : /Volumes/G-DRIVE Q/kebab/02 - Tidal Speed.flac
Pre-gap length : 00:03:55
CRC32 hash (test run) : 6FBAEF78
CRC32 hash : 6FBAEF78
CRC32 hash (skip zero) : 3DF4981D
AccurateRip signature : 49EAC453
->Accurately ripped! (confidence 1)
Statistics
Read error : 0
Skipped (treated as error) : 0
Edge jitter error (maybe fixed) : 0
Atom jitter error (maybe fixed) : 0
Drift error (maybe fixed) : 0
Dropped bytes error (maybe fixed) : 0
Duplicated bytes error (maybe fixed) : 0
Inconsistency in error sectors : 0
Track 03
Filename : /Volumes/G-DRIVE Q/kebab/03 - Inflow Tune.flac
Pre-gap length : 00:03:57
CRC32 hash (test run) : 24814A36
CRC32 hash : 24814A36
CRC32 hash (skip zero) : 4F85C140
AccurateRip signature : A8674BEB
->Accurately ripped! (confidence 1)
Statistics
Read error : 0
Skipped (treated as error) : 0
Edge jitter error (maybe fixed) : 0
Atom jitter error (maybe fixed) : 0
Drift error (maybe fixed) : 0
Dropped bytes error (maybe fixed) : 0
Duplicated bytes error (maybe fixed) : 0
Inconsistency in error sectors : 0
Track 04
Filename : /Volumes/G-DRIVE Q/kebab/04 - Critical Velocity.flac
Pre-gap length : 00:02:00
CRC32 hash (test run) : 5C561316
CRC32 hash : 5C561316
CRC32 hash (skip zero) : 38BFBA4D
AccurateRip signature : 7C2C3F6A
->Accurately ripped! (confidence 1)
Statistics
Read error : 0
Skipped (treated as error) : 0
Edge jitter error (maybe fixed) : 0
Atom jitter error (maybe fixed) : 0
Drift error (maybe fixed) : 0
Dropped bytes error (maybe fixed) : 0
Duplicated bytes error (maybe fixed) : 0
Inconsistency in error sectors : 0
Track 05
Filename : /Volumes/G-DRIVE Q/kebab/05 - Watermouth.flac
Pre-gap length : 00:02:09
CRC32 hash (test run) : 65A2992C
CRC32 hash : 65A2992C
CRC32 hash (skip zero) : 1693858E
AccurateRip signature : F0F05FD1
->Accurately ripped! (confidence 1)
Statistics
Read error : 0
Skipped (treated as error) : 0
Edge jitter error (maybe fixed) : 0
Atom jitter error (maybe fixed) : 0
Drift error (maybe fixed) : 0
Dropped bytes error (maybe fixed) : 0
Duplicated bytes error (maybe fixed) : 0
Inconsistency in error sectors : 0
Track 06
Filename : /Volumes/G-DRIVE Q/kebab/06 - Hydrological - Grove.flac
Pre-gap length : 00:02:10
CRC32 hash (test run) : DE7BC680
CRC32 hash : DE7BC680
CRC32 hash (skip zero) : A8885270
AccurateRip signature : 18020D56
->Accurately ripped! (confidence 1)
Statistics
Read error : 0
Skipped (treated as error) : 0
Edge jitter error (maybe fixed) : 0
Atom jitter error (maybe fixed) : 0
Drift error (maybe fixed) : 0
Dropped bytes error (maybe fixed) : 0
Duplicated bytes error (maybe fixed) : 0
Inconsistency in error sectors : 0
Track 07
Filename : /Volumes/G-DRIVE Q/kebab/07 - Why Dreams Like Loose Water.flac
Pre-gap length : 00:03:52
CRC32 hash (test run) : 0BBE3FD9
CRC32 hash : 0BBE3FD9
CRC32 hash (skip zero) : 3ED8B2E5
AccurateRip signature : 2388C9C2
->Accurately ripped! (confidence 1)
Statistics
Read error : 0
Skipped (treated as error) : 0
Edge jitter error (maybe fixed) : 0
Atom jitter error (maybe fixed) : 0
Drift error (maybe fixed) : 0
Dropped bytes error (maybe fixed) : 0
Duplicated bytes error (maybe fixed) : 0
Inconsistency in error sectors : 0
Track 08
Filename : /Volumes/G-DRIVE Q/kebab/08 - Pacific Accident.flac
Pre-gap length : 00:03:11
CRC32 hash (test run) : 2B9CF5F5
CRC32 hash : 2B9CF5F5
CRC32 hash (skip zero) : E0CAD813
AccurateRip signature : 24B70BA2
->Accurately ripped! (confidence 1)
Statistics
Read error : 0
Skipped (treated as error) : 0
Edge jitter error (maybe fixed) : 0
Atom jitter error (maybe fixed) : 0
Drift error (maybe fixed) : 0
Dropped bytes error (maybe fixed) : 0
Duplicated bytes error (maybe fixed) : 0
Inconsistency in error sectors : 0
Track 09
Filename : /Volumes/G-DRIVE Q/kebab/09 - Voices & Tides.flac
Pre-gap length : 00:02:00
CRC32 hash (test run) : 502E9C87
CRC32 hash : 502E9C87
CRC32 hash (skip zero) : 3C9D0626
AccurateRip signature : 18CCDECA
->Accurately ripped! (confidence 1)
Statistics
Read error : 0
Skipped (treated as error) : 0
Edge jitter error (maybe fixed) : 0
Atom jitter error (maybe fixed) : 0
Drift error (maybe fixed) : 0
Dropped bytes error (maybe fixed) : 0
Duplicated bytes error (maybe fixed) : 0
Inconsistency in error sectors : 0
No errors occurred
End of status report
выложил ivan_buratino, спасибо.
По всем вопросам пишите личное сообщение пользователю M0p94ok.
00:57
177
Нет комментариев. Ваш будет первым!