Вы используете незарегистрированную версию компонента "Вкладки"!

Поиск

(Avant-Garde) Gerry Hemingway Quintet - Waltzes, Two-Steps & Other Matters of the Heart - 1999, FLAC (image+.cue), lossless

Треклист:
Gerry Hemingway Quintet - Waltzes, Two-Steps & Other Matters of the Heart

Жанр: Avant-Garde
Год выпуска диска: 1999
Производитель диска: GM Records 3043; USA
Аудио кодек: FLAC
Тип рипа: image+.cue
Битрейт аудио: lossless
Продолжительность: 1:04:06
Michael Moore: alto saxophone, clarinet, bass clarinet
Wolter Wierbos: trombone
Ernst Reijseger: cello
Mark Dresser: bass
Gerry Hemingway: drums, percussion, harmonica
1. Waltz In Seven
2. Full Off
3. Gitar
4. Gospel Waltz
5. XI
6. Toombow
7. Ari
1, 2, 5, 7 Recorded November 2, 1996 at the Berlin Jazz Festival
3, 4, 6 Recorded November 4, 1996 at the Fasching in Stockholm, Sweden
 
AMG Review
This live recording from 1996 is drummer/composer Gerry Hemingway's last album with his longstanding European-based quintet, rounded out by bassist Mark Dresser, cellist Ernst Reijseger, clarinetist/alto saxophonist Michael Moore, and trombonist Wolter Wierbos. As the title partly suggests, there is an intimate, down-to-earth feel to this music, or at least more so than one might expect from an avant-garde jazz record. Hemingway employs a range of moods and colors, and he successfully draws on a number of non-jazz styles in his pieces. For example, while he doesn't make explicit genre references in the same way as, say, John Zorn, there are clear hints of folk music from South Africa ("Toombow"), the U.S. ("Gospel Waltz"), and Europe ("Ari," actually an arrangement of a traditional Bavarian waltz). The dynamics tend toward the quieter side and, especially when Moore is on clarinet and Dresser and Reijseger are bowing their instruments, the music takes on a chamber music feel. In fact, the only piece that has any real ties with the bop idiom (in the sense of "swinging" in a traditional sense) is "Full Off," and even that pushes the envelope with its convoluted theme and constant rhythmic changeups. This album is a shade more accessible than some of the quintet's previous releases, partly because the pieces are not as lengthy as on earlier efforts, but also because the music tends to be more spacious and open than in the past. On the whole, Waltzes, Two-Steps offers a solid introduction to the group for newcomers and is certainly a worthwhile purchase for fans. ~ William York, AMG
 
EAC Report
Exact Audio Copy V0.99 prebeta 4 from 23. January 2008
EAC extraction logfile from 16. August 2009, 21:28
Gerry Hemingway Quintet / Waltzes, Two-Steps & Other Matters of the Heart
Used drive : TSSTcorpCD/DVDW SH-S182M Adapter: 2 ID: 0
Read mode : Secure
Utilize accurate stream : Yes
Defeat audio cache : Yes
Make use of C2 pointers : No
Read offset correction : 6
Overread into Lead-In and Lead-Out : No
Fill up missing offset samples with silence : Yes
Delete leading and trailing silent blocks : No
Null samples used in CRC calculations : Yes
Used interface : Installed external ASPI interface
Used output format : User Defined Encoder
Selected bitrate : 1024 kBit/s
Quality : High
Add ID3 tag : No
Command line compressor : C:\Program Files\Exact Audio Copy\FLAC\FLAC.EXE
Additional command line options : -6 -V -T "ARTIST=%a" -T "TITLE=%t" -T "ALBUM=%g" -T "DATE=%y" -T "TRACKNUMBER=%n" -T "GENRE=%m" -T "COMMENT=%e" %s -o %d
TOC of the extracted CD
Track | Start | Length | Start sector | End sector
---------------------------------------------------------
1 | 0:00.00 | 5:43.20 | 0 | 25744
2 | 5:43.20 | 5:44.43 | 25745 | 51587
3 | 11:27.63 | 12:49.11 | 51588 | 109273
4 | 24:16.74 | 12:47.58 | 109274 | 166856
5 | 37:04.57 | 6:33.29 | 166857 | 196360
6 | 43:38.11 | 16:56.17 | 196361 | 272577
7 | 60:34.28 | 3:31.62 | 272578 | 288464
Range status and errors
Selected range
Filename C:\Documents and Settings\Igor\My Documents\My Music\eac\Gerry Hemingway Quintet - Waltzes, Two-Steps & Other Matters of the Heart.wav
Peak level 99.6 %
Range quality 100.0 %
Test CRC 9041A9B2
Copy CRC 9041A9B2
Copy OK
No errors occurred
AccurateRip summary
Track 1 accurately ripped (confidence 1) [360B6F2E]
Track 2 accurately ripped (confidence 1) [A82AADD6]
Track 3 accurately ripped (confidence 1) [22CF009D]
Track 4 accurately ripped (confidence 1) [AC86C961]
Track 5 accurately ripped (confidence 1) [47E203F8]
Track 6 accurately ripped (confidence 1) [8C1956C9]
Track 7 accurately ripped (confidence 1) [1F57E43D]
All tracks accurately ripped
End of status report

рип собственный
Any questions -> support@pro-jazz.com. По всем вопросам пишите -> support@pro-jazz.com
00:56
174
Нет комментариев. Ваш будет первым!